+ ShareSpark.net »  :::: Bollywood Zone » Regional Movies » Punjabi Movies
|- Bambukat Punjabi Untouched 1080p WEB-DL x264 AAC - Hon3yHD


10% SBI and 10% Discount

Bambukat Punjabi Untouched 1080p WEB-DL x264 AAC - Hon3yHD

0 Members and 1 Guest are viewing this topic.

June 24, 2017, 10:14:21 PM
  • Global Moderator
  • Legend Member
  • *****
  • Topic Author
  • Thank You: 11379
  • Reputation: 2287
  • Activity:
    100%
  • Country: in
  • Posts: 5511
  • Topics: 4535
  • Join Date: Jan 2014
  • ıllıllı ѕмoĸιng ιѕ good ғor нealтн ıllıllı :)
Bambukat Punjabi Untouched 1080p WEB-DL x264 AAC - Hon3yHD



Quote
General
Format                                   : MPEG-4
Format profile                           : Base Media
Codec ID                                 : isom (isom/iso2/avc1/mp41)
File size                                : 1.69 GiB
Duration                                 : 1 h 57 min
Overall bit rate                         : 2 056 kb/s
Writing application                      : Lavf56.40.101

Video
ID                                       : 1
Format                                   : AVC
Format/Info                              : Advanced Video Codec
Format profile                           : [email protected]
Format settings, CABAC                   : Yes
Format settings, ReFrames                : 3 frames
Codec ID                                 : avc1
Codec ID/Info                            : Advanced Video Coding
Duration                                 : 1 h 57 min
Bit rate                                 : 1 925 kb/s
Width                                    : 1 920 pixels
Height                                   : 1 080 pixels
Display aspect ratio                     : 16:9
Frame rate mode                          : Constant
Frame rate                               : 24.000 FPS
Color space                              : YUV
Chroma subsampling                       : 4:2:0
Bit depth                                : 8 bits
Scan type                                : Progressive
Bits/(Pixel*Frame)                       : 0.039
Stream size                              : 1.59 GiB (94%)
Color range                              : Limited
Color primaries                          : BT.709
Transfer characteristics                 : BT.709
Matrix coefficients                      : BT.709

Audio
ID                                       : 2
Format                                   : AAC
Format/Info                              : Advanced Audio Codec
Format profile                           : LC
Codec ID                                 : 40
Duration                                 : 1 h 57 min
Bit rate mode                            : Constant
Bit rate                                 : 126 kb/s
Channel(s)                               : 2 channels
Channel positions                        : Front: L R
Sampling rate                            : 44.1 kHz
Frame rate                               : 43.066 FPS (1024 spf)
Compression mode                         : Lossy
Stream size                              : 106 MiB (6%)
Default                                  : Yes
Alternate group                          : 1

:ss:



:download:

Quote








Don't walk as you are king, walk as you don't care who the king is....!!
Never argue with an idiot. They drag you down to their level and then beat you with experience?

Share this topic on FacebookShare this topic on GoogleShare this topic on MySpaceShare this topic on TwitterShare this topic on Yahoo




Don't walk as you are king, walk as you don't care who the king is....!!

Thanks given by:


June 24, 2017, 11:29:39 PM
Reply #1
  • Addic7ed
  • Legend Member
  • ****
  • Thank You: 84
  • Reputation: 42
  • Activity:
    36.8%
  • Posts: 1660
  • Topics: 133
  • Join Date: May 2012
  • ShareSpark Member

November 03, 2017, 12:08:57 PM
Reply #2
  • Time Heals Everything ...
  • Hero Member
  • ***
  • Thank You: 150
  • Reputation: 45
  • Activity:
    0%
  • Country: in
  • Posts: 368
  • Topics: 174
  • Join Date: Nov 2014
  • Dont Worry Because of People , They All Gona Die

Tags:
 

Related Topics





Back to top