+ ShareSpark.net »  :::: Bollywood Zone » Regional Movies » Punjabi Movies
|- Manje Bistre (2017) 1080p WEB-DL H264 AAC2.0 ESub-DDR



Manje Bistre (2017) 1080p WEB-DL H264 AAC2.0 ESub-DDR

0 Members and 1 Guest are viewing this topic.

August 21, 2017, 06:12:49 PM
  • Global Moderator
  • Legend Member
  • *****
  • Topic Author
  • Thank You: 5079
  • Reputation: 1054
  • Activity:
    100%
  • Country: in
  • Posts: 3761
  • Topics: 3145
  • Join Date: Jan 2014
  • ıllıllı ѕмoĸιng ιѕ good ғor нealтн ıllıllı :)
Manje Bistre (2017) 1080p WEB-DL H264 AAC2.0 ESub-DDR





 :info:

Quote
General
Complete name               : Manje Bistre (2017) 1080p WEB-DL H264 AAC2.0 ESub-DDR.mp4
Format                      : MPEG-4
Format profile              : Base Media
Codec ID                    : isom (isom/iso2/avc1/mp41)
File size                   : 14.4 GiB
Duration                    : 2 h 15 min
Overall bit rate mode       : Constant
Overall bit rate            : 15.2 Mb/s
Writing application         : Lavf54.63.104

Video
ID                          : 1
Format                      : AVC
Format/Info                 : Advanced Video Codec
Format profile              : [email protected]
Format settings, CABAC      : Yes
Format settings, ReFrames   : 2 frames
Codec ID                    : avc1
Codec ID/Info               : Advanced Video Coding
Duration                    : 2 h 15 min
Bit rate mode               : Constant
Bit rate                    : 15.0 Mb/s
Width                       : 1 920 pixels
Height                      : 1 080 pixels
Display aspect ratio        : 16:9
Frame rate mode             : Variable
Frame rate                  : 29.970 (30000/1001) FPS
Color space                 : YUV
Chroma subsampling          : 4:2:0
Bit depth                   : 8 bits
Scan type                   : Progressive
Bits/(Pixel*Frame)          : 0.241
Stream size                 : 14.2 GiB (98%)
Color range                 : Limited
Matrix coefficients         : BT.709

Audio
ID                          : 2
Format                      : AAC
Format/Info                 : Advanced Audio Codec
Format profile              : LC
Codec ID                    : 40
Duration                    : 2 h 15 min
Duration_LastFrame          : -21 ms
Bit rate mode               : Constant
Bit rate                    : 224 kb/s
Channel(s)                  : 2 channels
Channel positions           : Front: L R
Sampling rate               : 48.0 kHz
Frame rate                  : 46.875 FPS (1024 spf)
Compression mode            : Lossy
Stream size                 : 217 MiB (1%)
Language                    : English
Default                     : Yes
Alternate group             : 1

 :ss:













 :download:

Quote







Don't walk as you are king, walk as you don't care who the king is....!!
Never argue with an idiot. They drag you down to their level and then beat you with experience?

Share this topic on FacebookShare this topic on GoogleShare this topic on MySpaceShare this topic on TwitterShare this topic on Yahoo

« Last Edit: August 21, 2017, 10:40:52 PM by Rάήνίјάч1234 »



Don't walk as you are king, walk as you don't care who the king is....!!

Thanks given by:


August 21, 2017, 08:53:27 PM
Reply #1
  • Devoted Member
  • **
  • Thank You: 0
  • Reputation: 1
  • Activity:
    4.6%
  • Country: pk
  • Posts: 177
  • Topics: 0
  • Join Date: Jul 2017
  • ShareSpark Member
Many Thanks Bro
Plz Add Gippy Grewal Kaptaan 2016 Punjabi Movie Plz

August 21, 2017, 10:39:36 PM
Reply #2
  • Global Moderator
  • Legend Member
  • *****
  • Topic Author
  • Thank You: 5079
  • Reputation: 1054
  • Activity:
    100%
  • Country: in
  • Posts: 3761
  • Topics: 3145
  • Join Date: Jan 2014
  • ıllıllı ѕмoĸιng ιѕ good ғor нealтн ıllıllı :)
Many Thanks Bro
Plz Add Gippy Grewal Kaptaan 2016 Punjabi Movie Plz

Only DVDSCR Rip Is Available. Plz Wait For Original Rip.

Don't walk as you are king, walk as you don't care who the king is....!!

August 21, 2017, 11:42:33 PM
Reply #3
  • Semi Newbie
  • **
  • Thank You: 0
  • Reputation: 0
  • Activity:
    0.4%
  • Country: in
  • Posts: 9
  • Topics: 0
  • Join Date: Nov 2016
  • ShareSpark Member

August 21, 2017, 11:45:00 PM
Reply #4
  • Global Moderator
  • Legend Member
  • *****
  • Topic Author
  • Thank You: 5079
  • Reputation: 1054
  • Activity:
    100%
  • Country: in
  • Posts: 3761
  • Topics: 3145
  • Join Date: Jan 2014
  • ıllıllı ѕмoĸιng ιѕ good ғor нealтн ıllıllı :)

Don't walk as you are king, walk as you don't care who the king is....!!

Tags:
 

Related Topics

  Subject / Started by Replies Last post
1 Replies
1419 Views
Last post June 18, 2017, 05:28:44 PM
by ~DoSANJiT
1 Replies
823 Views
Last post April 20, 2017, 06:24:41 PM
by jamez.bond.3304
0 Replies
829 Views
Last post August 14, 2017, 03:33:12 PM
by jamez.bond.3304
2 Replies
1030 Views
Last post September 12, 2017, 12:54:49 PM
by honey01
0 Replies
444 Views
Last post September 28, 2017, 07:04:46 PM
by Rabasha




Back to top