+ ShareSpark.net »  :::: Bollywood Zone » Regional Movies » Punjabi Movies
|- Dharam Yudh Morcha 2017 720p HD RIP Punjabi GOPISAHI


Amazon Fashion

Dharam Yudh Morcha 2017 720p HD RIP Punjabi GOPISAHI

0 Members and 1 Guest are viewing this topic.

September 11, 2017, 08:39:05 PM
  • Addic7ed
  • Special Member
  • ****
  • Topic Author
  • Thank You: 401
  • Reputation: 90
  • Activity:
    0.2%
  • Country: in
  • Posts: 815
  • Topics: 770
  • Join Date: Oct 2013
  • ShareSpark Member

Format                         : Matroska
Format version                 : Version 4 / Version 2
File size                      : 686 MiB
Duration                       : 2 h 1 min
Overall bit rate               : 787 kb/s
Movie name                     : Dharam Yudh Morcha 2017 GD @ GOPISAHI

Video
Format                         : AVC
Codec ID                       : V_MPEG4/ISO/AVC
Duration                       : 2 h 1 min
Bit rate                       : 699 kb/s
Width                          : 1 280 pixels
Height                         : 492 pixels
Display aspect ratio           : 2.602
Frame rate mode                : Constant
Frame rate                     : 24.000 FPS
Stream size                    : 609 MiB (89%)
Title                          : GD @ GOPISAHI
Writing library                : x264 core 148 r2708 86b7198
Language                       : Panjabi

Audio
Format                         : AAC
Duration                       : 2 h 1 min
Bit rate                       : 86.2 kb/s
Channel(s)                     : 6 channels
Channel positions              : Front: L C R, Side: L R, LFE
Sampling rate                  : 44.1 kHz
Frame rate                     : 43.066 FPS (1024 SPF)
Stream size                    : 75.1 MiB (11%)
Title                          : GD @ GOPISAHI
Language                       : Panjabi















Share this topic on FacebookShare this topic on GoogleShare this topic on MySpaceShare this topic on TwitterShare this topic on Yahoo

« Last Edit: September 12, 2017, 06:38:03 AM by jattsahi2 »



Tags:
 

Related Topics

  Subject / Started by Replies Last post
0 Replies
860 Views
Last post February 05, 2017, 01:35:43 PM
by PSYCHO
1 Replies
911 Views
Last post July 17, 2017, 08:04:42 PM
by neelt
0 Replies
944 Views
Last post July 18, 2017, 11:54:33 AM
by jattsahi2
1 Replies
1344 Views
Last post September 28, 2017, 10:28:16 AM
by RomanEmpire
0 Replies
1101 Views
Last post September 26, 2017, 03:34:52 PM
by jattsahi2




Back to top