+ ShareSpark.net »  :::: Bollywood Zone » Regional Movies » Punjabi Movies
|- Krazzy Tabbar 720p HDRIP 2017 Punjabi GOPISAHI



Krazzy Tabbar 720p HDRIP 2017 Punjabi GOPISAHI

0 Members and 1 Guest are viewing this topic.

September 26, 2017, 07:12:44 AM
  • Addic7ed
  • Special Member
  • ****
  • Topic Author
  • Thank You: 326
  • Reputation: 76
  • Activity:
    60.4%
  • Country: in
  • Posts: 652
  • Topics: 610
  • Join Date: Oct 2013
  • ShareSpark Member

Complete name                  : G:\film\PUNJABI\2017\Krazzy Tabbar 720p HDRIP 2017 Punjabi GOPISAH.mkv
Format                         : Matroska
Format version                 : Version 4 / Version 2
File size                      : 744 MiB
Duration                       : 1 h 58 min
Overall bit rate               : 877 kb/s

Video
Format                         : AVC
Codec ID                       : V_MPEG4/ISO/AVC
Duration                       : 1 h 58 min
Bit rate                       : 799 kb/s
Width                          : 1 280 pixels
Height                         : 536 pixels
Display aspect ratio           : 2.40:1
Frame rate mode                : Constant
Frame rate                     : 25.000 FPS
Stream size                    : 677 MiB (91%)
Writing library                : x264 core 148 r2708 86b7198


Audio
Format                         : AAC
Duration                       : 1 h 58 min
Bit rate                       : 76.4 kb/s
Channel(s)                     : 6 channels
Channel positions              : Front: L C R, Side: L R, LFE
Sampling rate                  : 44.1 kHz
Frame rate                     : 43.066 FPS (1024 SPF)
Stream size                    : 64.8 MiB (9%)
Language                       : Panjabi

















Share this topic on FacebookShare this topic on GoogleShare this topic on MySpaceShare this topic on TwitterShare this topic on Yahoo



Thanks given by:


September 28, 2017, 10:28:16 AM
Reply #1
  • Devoted Member
  • **
  • Thank You: 0
  • Reputation: 1
  • Activity:
    4.4%
  • Country: pk
  • Posts: 175
  • Topics: 0
  • Join Date: Jul 2017
  • ShareSpark Member
GD Link Is Osmm...
Thank You Very Much...

Tags:
 

Related Topics

  Subject / Started by Replies Last post
1 Replies
608 Views
Last post July 17, 2017, 08:04:42 PM
by neelt
0 Replies
646 Views
Last post July 18, 2017, 11:54:33 AM
by jattsahi2
0 Replies
596 Views
Last post September 11, 2017, 08:39:05 PM
by jattsahi2
0 Replies
618 Views
Last post September 26, 2017, 03:34:52 PM
by jattsahi2
0 Replies
611 Views
Last post September 27, 2017, 07:16:40 AM
by jattsahi2




Back to top