+ ShareSpark.net »  :::: Bollywood Zone » Regional Movies » Punjabi Movies
|- Great Sardaar 2017 720p HDRIP Punjabi GOPISAHI


Redmi 6A

Great Sardaar 2017 720p HDRIP Punjabi GOPISAHI

0 Members and 1 Guest are viewing this topic.

September 26, 2017, 03:34:52 PM
  • Addic7ed
  • Special Member
  • ****
  • Topic Author
  • Thank You: 401
  • Reputation: 90
  • Activity:
    0%
  • Country: in
  • Posts: 815
  • Topics: 770
  • Join Date: Oct 2013
  • ShareSpark Member

Format                         : Matroska
Format version                 : Version 4 / Version 2
File size                      : 681 MiB
Duration                       : 1 h 48 min
Overall bit rate               : 876 kb/s
Movie name                     : Great Sardaar 2017 GOPISAHI

Video
Format                         : AVC
Codec ID                       : V_MPEG4/ISO/AVC
Duration                       : 1 h 48 min
Bit rate                       : 799 kb/s
Width                          : 1 280 pixels
Height                         : 502 pixels
Display aspect ratio           : 2.550
Frame rate                     : 23.976 (23976/1000) FPS
Stream size                    : 621 MiB (91%)
Writing library                : x264 core 148 r2708 86b7198

Audio
Format                         : AAC
Duration                       : 1 h 48 min
Bit rate                       : 75.0 kb/s
Channel(s)                     : 6 channels
Channel positions              : Front: L C R, Side: L R, LFE
Sampling rate                  : 44.1 kHz
Frame rate                     : 43.066 FPS (1024 SPF)
Stream size                    : 58.4 MiB (9%)
Language                       : Panjabi

















]

Share this topic on FacebookShare this topic on GoogleShare this topic on MySpaceShare this topic on TwitterShare this topic on Yahoo

« Last Edit: September 26, 2017, 03:35:42 PM by jattsahi2 »



Tags:
 

Related Topics

  Subject / Started by Replies Last post
1 Replies
874 Views
Last post August 20, 2016, 06:28:20 PM
by shahzaibjaan
1 Replies
1415 Views
Last post August 20, 2016, 06:28:23 PM
by shahzaibjaan
1 Replies
947 Views
Last post July 17, 2017, 08:04:42 PM
by neelt
1 Replies
1389 Views
Last post September 28, 2017, 10:28:16 AM
by RomanEmpire
0 Replies
1132 Views
Last post September 27, 2017, 07:16:40 AM
by jattsahi2




Back to top