+ ShareSpark.net »  :::: Bollywood Zone » Regional Movies » Punjabi Movies
|- Rocky Mental 2017 720p HDRIP Punjabi GOPISAHI



Rocky Mental 2017 720p HDRIP Punjabi GOPISAHI

0 Members and 1 Guest are viewing this topic.

September 27, 2017, 07:16:40 AM
  • Addic7ed
  • Hot Member
  • ****
  • Topic Author
  • Thank You: 325
  • Reputation: 76
  • Activity:
    60.4%
  • Country: in
  • Posts: 648
  • Topics: 606
  • Join Date: Oct 2013
  • ShareSpark Member

Format                         : Matroska
Format version                 : Version 4 / Version 2
File size                      : 634 MiB
Duration                       : 2 h 8 min
Overall bit rate               : 688 kb/s
Movie name                     : Rocky Mental 2017

Video
Format                         : AVC
Codec ID                       : V_MPEG4/ISO/AVC
Duration                       : 2 h 8 min
Bit rate                       : 599 kb/s
Width                          : 1 280 pixels
Height                         : 540 pixels
Display aspect ratio           : 2.40:1
Frame rate mode                : Constant
Frame rate                     : 24.000 FPS
Stream size                    : 552 MiB (87%)
Writing library                : x264 core 148 r2708 86b7198

Audio
Format                         : AAC
Duration                       : 2 h 8 min
Bit rate                       : 86.7 kb/s
Channel(s)                     : 6 channels
Channel positions              : Front: L C R, Side: L R, LFE
Sampling rate                  : 44.1 kHz
Frame rate                     : 43.066 FPS (1024 SPF)
Stream size                    : 80.0 MiB (13%)
Language                       : Panjabi














Share this topic on FacebookShare this topic on GoogleShare this topic on MySpaceShare this topic on TwitterShare this topic on Yahoo



Thanks given by:


Tags:
 

Related Topics

  Subject / Started by Replies Last post
1 Replies
600 Views
Last post July 17, 2017, 08:04:42 PM
by neelt
0 Replies
640 Views
Last post July 18, 2017, 11:54:33 AM
by jattsahi2
0 Replies
578 Views
Last post September 11, 2017, 08:39:05 PM
by jattsahi2
1 Replies
777 Views
Last post September 28, 2017, 10:28:16 AM
by RomanEmpire
0 Replies
605 Views
Last post September 26, 2017, 03:34:52 PM
by jattsahi2




Back to top