+ ShareSpark.net »  :::: Bollywood Zone » Regional Movies » Punjabi Movies
|- Vekh Baraatan Challiyan (2017) [Punjabi] 720P - HD Rip - x264 - AAC

Gif Cards 25% Off

Vekh Baraatan Challiyan (2017) [Punjabi] 720P - HD Rip - x264 - AAC

0 Members and 1 Guest are viewing this topic.

October 05, 2017, 03:50:35 PM
  • Elite Member
  • ***
  • Topic Author
  • Thank You: 122
  • Reputation: 22
  • Activity:
    0%
  • Country: in
  • Posts: 482
  • Topics: 457
  • Join Date: Nov 2013
  • ShareSpark Member


Format : MPEG-4
Format profile : Base Media
Codec ID : isom (isom/avc1/iso6)
File size : 1.00 GiB
Duration : 2 h 5 min
Overall bit rate mode : Variable
Overall bit rate : 1 147 kb/s

Video
ID : 1
Format : AVC
Format/Info : Advanced Video Codec 
Format settings : CABAC / 4 Ref Frames
Format settings, CABAC : Yes
Format settings, RefFrames : 4 frames
Codec ID : avc1
Codec ID/Info : Advanced Video Coding
Duration : 2 h 5 min
Bit rate mode : Variable
Bit rate : 1 016 kb/s
Maximum bit rate : 40.0 Mb/s
Width : 1 280 pixels
Height : 544 pixels
Display aspect ratio : 2.35:1
Frame rate mode : Constant
Frame rate : 24.000 FPS
Color space : YUV
Chroma subsampling : 4:2:0
Bit depth : 8 bits
Scan type : Progressive
Bits/(Pixel*Frame) : 0.061
Stream size : 909 MiB (88%)
Writing library : x264 core 148 r2744 b97ae06

Audio
ID : 2
Format : AAC
Format/Info : Advanced Audio Codec
Format profile : LC
Codec ID : mp4a-40-2
Duration : 2 h 5 min
Bit rate mode : Variable
Bit rate : 128 kb/s
Maximum bit rate : 169 kb/s
Channel(s) : 2 channels
Channel positions : Front: L R
Sampling rate : 48.0 kHz
Frame rate : 46.875 FPS (1024 SPF)
Compression mode : Lossy
Stream size : 115 MiB (11%)
Language : Punjabi

:ss:


:download:







Share this topic on FacebookShare this topic on GoogleShare this topic on MySpaceShare this topic on TwitterShare this topic on Yahoo



Thanks given by:


Tags:
 

Related Topics

  Subject / Started by Replies Last post
0 Replies
1255 Views
Last post August 02, 2017, 02:23:23 PM
by lucky.kapur.50
6 Replies
2759 Views
Last post April 24, 2018, 02:11:15 AM
by anilst3
0 Replies
973 Views
Last post October 05, 2017, 10:19:25 AM
by Rάήνίјάч1234
1 Replies
1018 Views
Last post October 05, 2017, 12:59:46 PM
by RomanEmpire
0 Replies
1157 Views
Last post October 06, 2017, 07:48:21 AM
by jattsahi2



Back to top