+ ShareSpark.net »  :::: Bollywood Zone » Regional Movies » Punjabi Movies
|- Vekh Baraatan Challiyan 720p HDRIP Punjabi GOPISAHI


First Recharge Offer 75% Off

Vekh Baraatan Challiyan 720p HDRIP Punjabi GOPISAHI

0 Members and 1 Guest are viewing this topic.

October 06, 2017, 07:48:21 AM
  • Addic7ed
  • Special Member
  • ****
  • Topic Author
  • Thank You: 389
  • Reputation: 89
  • Activity:
    44.6%
  • Country: in
  • Posts: 812
  • Topics: 768
  • Join Date: Oct 2013
  • ShareSpark Member

Format                         : Matroska
Format version                 : Version 4 / Version 2
File size                      : 739 MiB
Duration                       : 2 h 5 min
Overall bit rate               : 826 kb/s
Movie name                     : Vekh Baraatan Challiyan 2017 GOPISAHI

Video
Format                         : AVC
Codec ID                       : V_MPEG4/ISO/AVC
Duration                       : 2 h 5 min
Bit rate                       : 750 kb/s
Width                          : 1 280 pixels
Height                         : 536 pixels
Display aspect ratio           : 2.40:1
Frame rate mode                : Constant
Frame rate                     : 24.000 FPS
Stream size                    : 671 MiB (91%)
Writing library                : x264 core
Audio
Format                         : AAC
Duration                       : 2 h 5 min
Bit rate                       : 74.1 kb/s
Channel(s)                     : 6 channels
Channel positions              : Front: L C R, Side: L R, LFE
Sampling rate                  : 44.1 kHz
Frame rate                     : 43.066 FPS (1024 SPF)
Stream size                    : 66.4 MiB (9%)
Language                       : Panjabi


















Share this topic on FacebookShare this topic on GoogleShare this topic on MySpaceShare this topic on TwitterShare this topic on Yahoo

« Last Edit: October 06, 2017, 07:48:51 AM by jattsahi2 »


Thanks given by:


Tags:
 

Related Topics




Back to top