+ ShareSpark.net »  :::: Bollywood Zone » Regional Movies » Punjabi Movies
|- Saab Bahadar 2017 720p Non Retail DVDRiP Punjabi GOPISAHI


10% SBI and 10% Discount

Saab Bahadar 2017 720p Non Retail DVDRiP Punjabi GOPISAHI

0 Members and 1 Guest are viewing this topic.

October 19, 2017, 09:38:35 PM
  • Addic7ed
  • Special Member
  • ****
  • Topic Author
  • Thank You: 401
  • Reputation: 90
  • Activity:
    0.2%
  • Country: in
  • Posts: 815
  • Topics: 770
  • Join Date: Oct 2013
  • ShareSpark Member

Format                         : Matroska
Format version                 : Version 4 / Version 2
File size                      : 491 MiB
Duration                       : 1 h 55 min
Overall bit rate               : 596 kb/s
Movie name                     : Saab Bahadar 2017  

Video
Format                         : AVC
Codec ID                       : V_MPEG4/ISO/AVC
Duration                       : 1 h 55 min
Bit rate                       : 499 kb/s
Width                          : 1 280 pixels
Height                         : 568 pixels
Display aspect ratio           : 2.25:1
Frame rate mode                : Constant
Frame rate                     : 23.976 (24000/1001) FPS
Stream size                    : 411 MiB (84%)
Writing library                : x264

Audio
Format                         : AAC
Duration                       : 1 h 55 min
Bit rate                       : 96.0 kb/s
Channel(s)                     : 6 channels
Channel positions              : Front: L C R, Side: L R, LFE
Sampling rate                  : 44.1 kHz
Frame rate                     : 43.066 FPS (1024 SPF)
Stream size                    : 78.4 MiB (16%)
Language                       : Panjabi








Share this topic on FacebookShare this topic on GoogleShare this topic on MySpaceShare this topic on TwitterShare this topic on Yahoo



Thanks given by:


October 21, 2017, 12:50:08 AM
Reply #1
  • Begginer
  • **
  • Thank You: 1
  • Reputation: 2
  • Activity:
    1.2%
  • Country: in
  • Posts: 76
  • Topics: 5
  • Join Date: Sep 2017
  • ShareSpark Member
Thanks, Please upload the 1080p Version, its available on many websites.

April 18, 2018, 01:36:21 PM
Reply #2
  • Addic7ed
  • Legend Member
  • ****
  • Thank You: 75
  • Reputation: 38
  • Activity:
    45.4%
  • Posts: 1590
  • Topics: 120
  • Join Date: May 2012
  • ShareSpark Member

Tags:
 

Related Topics

  Subject / Started by Replies Last post
3 Replies
884 Views
Last post February 27, 2017, 11:13:16 PM
by neelt
2 Replies
1197 Views
Last post February 28, 2017, 02:06:48 PM
by -SHADNAN-
0 Replies
935 Views
Last post July 18, 2017, 11:54:33 AM
by jattsahi2
1 Replies
1336 Views
Last post September 28, 2017, 10:28:16 AM
by RomanEmpire
0 Replies
1028 Views
Last post August 25, 2018, 06:02:57 PM
by shahzaibjaan




Back to top