+ ShareSpark.net »  :::: Bollywood Zone » Regional Movies » Punjabi Movies
|- Rupinder Gandhi 2 2017 1080p HD RIP Punjabi GOPISAHI



Rupinder Gandhi 2 2017 1080p HD RIP Punjabi GOPISAHI

0 Members and 1 Guest are viewing this topic.

November 04, 2017, 08:59:35 AM
  • Addic7ed
  • Hot Member
  • ****
  • Topic Author
  • Thank You: 325
  • Reputation: 76
  • Activity:
    60.4%
  • Country: in
  • Posts: 648
  • Topics: 606
  • Join Date: Oct 2013
  • ShareSpark Member


Format                         : Matroska
Format version                 : Version 4 / Version 2
File size                      : 903 MiB
Duration                       : 2 h 7 min
Overall bit rate               : 990 kb/s
Movie name                     : Rupinder Gandhi 2 2017 GOPISAHI

Video
Format                         : AVC
Codec ID                       : V_MPEG4/ISO/AVC
Duration                       : 2 h 7 min
Bit rate                       : 900 kb/s
Width                          : 1 920 pixels
Height                         : 816 pixels
Display aspect ratio           : 2.35:1
Frame rate mode                : Constant
Frame rate                     : 24.000 FPS
Stream size                    : 821 MiB (91%)
Writing library                : x264 core 148 r2744 b97ae06
Language                       : Panjabi

Audio
Format                         : AAC
Duration                       : 2 h 7 min
Bit rate                       : 88.2 kb/s
Channel(s)                     : 6 channels
Channel positions              : Front: L C R, Side: L R, LFE
Sampling rate                  : 44.1 kHz
Frame rate                     : 43.066 FPS (1024 SPF)
Stream size                    : 80.4 MiB (9%)
Language                       : Panjabi





Share this topic on FacebookShare this topic on GoogleShare this topic on MySpaceShare this topic on TwitterShare this topic on Yahoo



Thanks given by:


Tags:
 

Related Topics

  Subject / Started by Replies Last post
0 Replies
389 Views
Last post December 25, 2015, 05:39:17 AM
by -Ð@Rk.ÐèVi£-
0 Replies
640 Views
Last post July 18, 2017, 11:54:33 AM
by jattsahi2
0 Replies
578 Views
Last post September 11, 2017, 08:39:05 PM
by jattsahi2
1 Replies
777 Views
Last post September 28, 2017, 10:28:16 AM
by RomanEmpire
0 Replies
798 Views
Last post November 05, 2017, 09:35:34 AM
by jattsahi2




Back to top