+ ShareSpark.net »  :::: Bollywood Zone » Regional Movies » Punjabi Movies
|- Dushman 2017 DvD RiP Punjabi GOPISAHI


Mastercard 10% Off

Dushman 2017 DvD RiP Punjabi GOPISAHI

0 Members and 1 Guest are viewing this topic.

November 05, 2017, 09:35:34 AM
  • Addic7ed
  • Special Member
  • ****
  • Topic Author
  • Thank You: 401
  • Reputation: 90
  • Activity:
    0.2%
  • Country: in
  • Posts: 815
  • Topics: 770
  • Join Date: Oct 2013
  • ShareSpark Member


Format                         : Matroska
Format version                 : Version 4 / Version 2
File size                      : 392 MiB
Duration                       : 2 h 20 min
Overall bit rate               : 391 kb/s
Movie name                     : Dushman 2017
Video
Format                         : AVC
Format/Info                    : Advanced Video Codec
Codec ID                       : V_MPEG4/ISO/AVC
Duration                       : 2 h 20 min
Bit rate                       : 300 kb/s
Width                          : 800 pixels
Height                         : 304 pixels
Display aspect ratio           : 2.632
Frame rate mode                : Constant
Frame rate                     : 23.976 (24000/1001) FPS
Stream size                    : 300 MiB (77%)
Writing library                : x264

Audio
Format                         : AAC
Duration                       : 2 h 20 min
Bit rate                       : 89.0 kb/s
Channel(s)                     : 6 channels
Channel positions              : Front: L C R, Side: L R, LFE
Sampling rate                  : 44.1 kHz
Frame rate                     : 43.066 FPS (1024 SPF)
Compression mode               : Lossy
Stream size                    : 89.1 MiB (23%)
Language                       : Panjabi











Share this topic on FacebookShare this topic on GoogleShare this topic on MySpaceShare this topic on TwitterShare this topic on Yahoo



Thanks given by:


Tags:
 

Related Topics

  Subject / Started by Replies Last post
1 Replies
925 Views
Last post July 17, 2017, 08:04:42 PM
by neelt
0 Replies
967 Views
Last post July 18, 2017, 11:54:33 AM
by jattsahi2
0 Replies
940 Views
Last post September 11, 2017, 08:39:05 PM
by jattsahi2
0 Replies
1115 Views
Last post November 04, 2017, 08:59:35 AM
by jattsahi2
0 Replies
1127 Views
Last post December 11, 2017, 07:52:00 PM
by jattsahi2




Back to top