+ ShareSpark.net »  :::: Bollywood Zone » Regional Movies » Punjabi Movies
|- Sat Shri Akaal England 2017 PreDVDRip Punjabi GOPISAHI


Fasoos 30% Off

Sat Shri Akaal England 2017 PreDVDRip Punjabi GOPISAHI

0 Members and 1 Guest are viewing this topic.

December 11, 2017, 07:52:00 PM
  • Addic7ed
  • Special Member
  • ****
  • Topic Author
  • Thank You: 389
  • Reputation: 89
  • Activity:
    44.6%
  • Country: in
  • Posts: 812
  • Topics: 768
  • Join Date: Oct 2013
  • ShareSpark Member

Format                         : Matroska
Format version                 : Version 4 / Version 2
File size                      : 321 MiB
Duration                       : 2 h 4 min
Overall bit rate               : 359 kb/s
Movie name                     : Sat Shri Akaal England 2017 GOPISAHI

Video2
Format                         : AVC
Codec ID                       : V_MPEG4/ISO/AVC
Duration                       : 2 h 4 min
Bit rate                       : 300 kb/s
Width                          : 720 pixels
Height                         : 320 pixels
Display aspect ratio           : 2.25:1
Frame rate mode                : Constant
Frame rate                     : 29.970 (29970/1000) FPS
Original frame rate            : 29.970 (30000/1001) FPS
Stream size                    : 268 MiB (84%)
Writing library                : x264

Audio
Format                         : AAC
Duration                       : 2 h 4 min
Bit rate                       : 56.5 kb/s
Channel(s)                     : 2 channels
Channel positions              : Front: L R
Sampling rate                  : 44.1 kHz
Frame rate                     : 43.066 FPS (1024 SPF)
Compression mode               : Lossy
Stream size                    : 50.5 MiB (16%)
Language                       : Panjabi





Share this topic on FacebookShare this topic on GoogleShare this topic on MySpaceShare this topic on TwitterShare this topic on Yahoo




Tags:
 

Related Topics

  Subject / Started by Replies Last post
0 Replies
798 Views
Last post July 18, 2017, 11:54:33 AM
by jattsahi2
0 Replies
628 Views
Last post September 25, 2017, 07:06:19 PM
by exdking
0 Replies
935 Views
Last post September 27, 2017, 07:16:40 AM
by jattsahi2
0 Replies
981 Views
Last post November 04, 2017, 08:59:35 AM
by jattsahi2
0 Replies
1133 Views
Last post November 05, 2017, 09:35:34 AM
by jattsahi2



Back to top