+ ShareSpark.net »  :::: Bollywood Zone » Regional Movies » Punjabi Movies
|- Saka 2016 720p EsubHDRIP Punjabi GOPISAHI


100% Recharge Offer

Saka 2016 720p EsubHDRIP Punjabi GOPISAHI

0 Members and 1 Guest are viewing this topic.

January 04, 2018, 07:06:14 PM
  • Addic7ed
  • Special Member
  • ****
  • Topic Author
  • Thank You: 401
  • Reputation: 90
  • Activity:
    0.2%
  • Country: in
  • Posts: 815
  • Topics: 770
  • Join Date: Oct 2013
  • ShareSpark Member

General
Unique ID                      : 173415655202500973005942915216662965998 (0x8276A3EBE17165369D2A30837D95AEEE)
Complete name                  : G:\film\Saka 2016 720p EsubHDRIP Punjabi GOPISAHI.mkv
Format                         : Matroska
Format version                 : Version 4 / Version 2
File size                      : 422 MiB
Duration                       : 2 h 10 min
Overall bit rate               : 452 kb/s
Movie name                     : Saka 2017 GOPISAHI
Encoded date                   : UTC 2018-01-03 13:31:33
Writing application            : mkvmerge v13.0.0 ('The Juggler') 64bit
Writing library                : libebml v1.3.4 + libmatroska v1.4.5

Video
ID                             : 1
Format                         : AVC
Format/Info                    : Advanced Video Codec
Format profile                 : [email protected]
Format settings                : CABAC / 11 Ref Frames
Format settings, CABAC         : Yes
Format settings, ReFrames      : 11 frames
Codec ID                       : V_MPEG4/ISO/AVC
Duration                       : 2 h 10 min
Bit rate                       : 400 kb/s
Width                          : 1 280 pixels
Height                         : 554 pixels
Display aspect ratio           : 2.35:1
Frame rate mode                : Constant
Frame rate                     : 24.000 FPS
Color space                    : YUV
Chroma subsampling             : 4:2:0
Bit depth                      : 8 bits
Scan type                      : Progressive
Bits/(Pixel*Frame)             : 0.024
Stream size                    : 373 MiB (88%)
Title                          : GOPISAHI
Writing library                : x264 core 148 r2708 86b7198
Encoding settings              : cabac=1 / ref=11 / deblock=1:0:0 / analyse=0x1:0x131 / me=umh / subme=10 / psy=1 / psy_rd=1.00:0.00 / mixed_ref=1 / me_range=24 / chroma_me=1 / trellis=2 / 8x8dct=0 / cqm=0 / deadzone=21,11 / fast_pskip=1 / chroma_qp_offset=-2 / threads=12 / lookahead_threads=2 / sliced_threads=0 / nr=0 / decimate=1 / interlaced=0 / bluray_compat=0 / constrained_intra=0 / bframes=8 / b_pyramid=2 / b_adapt=2 / b_bias=0 / direct=3 / weightb=1 / open_gop=0 / weightp=2 / keyint=240 / keyint_min=24 / scenecut=40 / intra_refresh=0 / rc_lookahead=60 / rc=2pass / mbtree=1 / bitrate=400 / ratetol=1.0 / qcomp=0.60 / qpmin=0 / qpmax=69 / qpstep=4 / cplxblur=20.0 / qblur=0.5 / vbv_maxrate=20000 / vbv_bufsize=25000 / nal_hrd=none / filler=0 / ip_ratio=1.40 / aq=1:1.00
Language                       : Panjabi
Default                        : Yes
Forced                         : No
Color range                    : Limited
Color primaries                : BT.709
Transfer characteristics       : BT.709
Matrix coefficients            : BT.709

Audio
ID                             : 2
Format                         : AAC
Format/Info                    : Advanced Audio Codec
Format profile                 : LC
Codec ID                       : A_AAC-2
Duration                       : 2 h 10 min
Bit rate                       : 50.3 kb/s
Channel(s)                     : 6 channels
Channel positions              : Front: L C R, Side: L R, LFE
Sampling rate                  : 44.1 kHz
Frame rate                     : 43.066 FPS (1024 SPF)
Compression mode               : Lossy
Stream size                    : 47.0 MiB (11%)
Title                          : GOPISAHI





Share this topic on FacebookShare this topic on GoogleShare this topic on MySpaceShare this topic on TwitterShare this topic on Yahoo



Thanks given by:


January 04, 2018, 08:31:41 PM
Reply #1
  • LaDLa PriNce
  • Addic7ed (Inactive)
  • Legend Member
  • ****
  • Thank You: 213
  • Reputation: 91
  • Activity:
    1.2%
  • Country: pk
  • Posts: 1777
  • Topics: 161
  • Join Date: Sep 2012
  • I <3 ShareSpark

Tags:
 

Related Topics

  Subject / Started by Replies Last post
2 Replies
1581 Views
Last post August 20, 2016, 06:27:52 PM
by shahzaibjaan
1 Replies
1648 Views
Last post August 20, 2016, 06:27:56 PM
by shahzaibjaan
0 Replies
941 Views
Last post July 18, 2017, 11:54:33 AM
by jattsahi2
0 Replies
1258 Views
Last post October 06, 2017, 07:48:21 AM
by jattsahi2
1 Replies
1068 Views
Last post April 30, 2018, 08:18:07 PM
by honey01




Back to top