+ ShareSpark.net »  :::: Bollywood Zone » Regional Movies » Punjabi Movies
|- Toofan Singh 2017 720p HD Punjabi GOPISAHI


HDFC 10% Off
  • Toofan Singh 2017 720p HD Punjabi GOPISAHI 5 1
Currently:  

Toofan Singh 2017 720p HD Punjabi GOPISAHI

0 Members and 1 Guest are viewing this topic.

January 15, 2018, 07:18:56 PM
  • Addic7ed
  • Royal Member
  • ****
  • Topic Author
  • Thank You: 512
  • Reputation: 185
  • Activity:
    0%
  • Country: np
  • Posts: 1076
  • Topics: 702
  • Join Date: May 2017
  • #Me


 :plot:

Format                         : Matroska
Format version                 : Version 4 / Version 2
File size                      : 583 MiB
Duration                       : 2 h 22 min
Overall bit rate               : 572 kb/s
Movie name                     : Toofan Singh 2017 GOPISAHI

Video
Format                         : AVC
Duration                       : 2 h 22 min
Bit rate                       : 500 kb/s
Width                          : 1 280 pixels
Height                         : 676 pixels
Display aspect ratio           : 1.893
Frame rate mode                : Constant
Frame rate                     : 25.000 FPS
Stream size                    : 510 MiB (87%)
Writing library                : x264 core 148 r2708 86b7198

Audio
Format                         : AAC
Duration                       : 2 h 22 min
Bit rate                       : 70.0 kb/s
Channel(s)                     : 6 channels
Channel positions              : Front: L C R, Side: L R, LFE
Sampling rate                  : 44.1 kHz
Frame rate                     : 43.066 FPS (1024 SPF)
Compression mode               : Lossy
Stream size                    : 71.3 MiB (12%)
Language                       : Panjabi


 :ss: :ss:




 :download: :download:








Share this topic on FacebookShare this topic on GoogleShare this topic on MySpaceShare this topic on TwitterShare this topic on Yahoo

« Last Edit: January 19, 2018, 10:17:45 AM by jattsahi2 »


Thanks given by:


January 19, 2018, 10:18:12 AM
Reply #1
  • Addic7ed
  • Special Member
  • ****
  • Thank You: 401
  • Reputation: 90
  • Activity:
    0.2%
  • Country: in
  • Posts: 815
  • Topics: 770
  • Join Date: Oct 2013
  • ShareSpark Member

January 19, 2018, 04:33:45 PM
Reply #2
  • Addic7ed
  • Royal Member
  • ****
  • Topic Author
  • Thank You: 512
  • Reputation: 185
  • Activity:
    0%
  • Country: np
  • Posts: 1076
  • Topics: 702
  • Join Date: May 2017
  • #Me

Tags: new 
 

Related Topics

  Subject / Started by Replies Last post
3 Replies
1480 Views
Last post April 05, 2018, 03:50:10 PM
by hunterz007
0 Replies
899 Views
Last post March 20, 2018, 02:03:30 PM
by jattsahi2
1 Replies
1162 Views
Last post April 26, 2018, 01:37:23 PM
by honey01
0 Replies
737 Views
Last post July 19, 2018, 11:52:31 AM
by shahzaibjaan
0 Replies
623 Views
Last post August 01, 2018, 06:31:14 PM
by shahzaibjaan




Back to top