+ ShareSpark.net »  :::: Bollywood Zone » Regional Movies » Punjabi Movies
|- Sardar Mohammad 2017 720p HD Punjabi GOPISAHI


100% Bill Offer

Sardar Mohammad 2017 720p HD Punjabi GOPISAHI

0 Members and 1 Guest are viewing this topic.

January 19, 2018, 09:46:56 AM
  • Addic7ed
  • Special Member
  • ****
  • Topic Author
  • Thank You: 401
  • Reputation: 90
  • Activity:
    0.2%
  • Country: in
  • Posts: 815
  • Topics: 770
  • Join Date: Oct 2013
  • ShareSpark Member

Format                         : Matroska
Format version                 : Version 4 / Version 2
File size                      : 572 MiB
Duration                       : 2 h 19 min
Overall bit rate               : 572 kb/s
Movie name                     : Sardar Mohammad 2017 GOPISAHI

Video
Format                         : AVC
Codec ID                       : V_MPEG4/ISO/AVC
Duration                       : 2 h 19 min
Bit rate                       : 500 kb/s
Width                          : 1 280 pixels
Height                         : 536 pixels
Display aspect ratio           : 2.40:1
Frame rate mode                : Constant
Frame rate                     : 24.000 FPS
Stream size                    : 500 MiB (87%)
Writing library                : x264 core 148 r2708 86b7198
Language                       : Panjabi

Audio
Format                         : AAC
Duration                       : 2 h 19 min
Bit rate                       : 69.9 kb/s
Channel(s)                     : 6 channels
Channel positions              : Front: L C R, Side: L R, LFE
Sampling rate                  : 44.1 kHz
Frame rate                     : 43.066 FPS (1024 SPF)
Compression mode               : Lossy
Stream size                    : 70.0 MiB (12%)
Language                       : Panjabi





Share this topic on FacebookShare this topic on GoogleShare this topic on MySpaceShare this topic on TwitterShare this topic on Yahoo




Tags:
 

Related Topics

  Subject / Started by Replies Last post
3 Replies
888 Views
Last post February 27, 2017, 11:13:16 PM
by neelt
1 Replies
857 Views
Last post February 28, 2017, 02:05:10 PM
by -SHADNAN-
2 Replies
1207 Views
Last post February 28, 2017, 02:06:48 PM
by -SHADNAN-
0 Replies
941 Views
Last post July 18, 2017, 11:54:33 AM
by jattsahi2
1 Replies
1154 Views
Last post January 20, 2018, 02:29:40 PM
by hunterz007




Back to top