+ ShareSpark.net »  :::: Bollywood Zone » Bollywood Movies (Pre Releases)
|- Jatt Airways (2013) Punjabi Movie DVD SCR RIP GOPI SAHI (TEAM-ICTV)

Mobile Recharge Offer 20% Off

Jatt Airways (2013) Punjabi Movie DVD SCR RIP GOPI SAHI (TEAM-ICTV)

0 Members and 1 Guest are viewing this topic.

September 07, 2013, 04:36:39 PM
  • Elite Moderator
  • Elite Forces
  • ****
  • Topic Author
  • Thank You: 251
  • Reputation: 173
  • Activity:
    0%
  • Country: in
  • Posts: 1342
  • Topics: 410
  • Join Date: Feb 2013
  • •?((¯°·._.• β๏$$ •._.·°¯))؟•
  • Expertises:
  • Bollywood Movies
  • Dubbed Movies
Jatt Airways (2013) Punjabi Movie DVD SCR RIP GOPI SAHI (TEAM-ICTV)


 :info:


Code: [Select]
Video
ID : 0
Format : AVC
Format/Info : Advanced Video Codec
Format profile : [email protected]
Format settings, CABAC : Yes
Format settings, ReFrames : 1 frame
Codec ID : H264
Duration : 2h 15mn
Bit rate : 400 Kbps
Width : 640 pixels
Height : 360 pixels
Display aspect ratio : 16:9
Frame rate : 25.000 fps
Color space : YUV
Chroma subsampling : 4:2:0
Bit depth : 8 bits
Scan type : Progressive
Bits/(Pixel*Frame) : 0.069
Stream size : 386 MiB (85%)

Audio
ID : 1
Format : MPEG Audio
Format version : Version 1
Format profile : Layer 2
Codec ID : 50
Duration : 2h 15mn
Bit rate mode : Constant
Bit rate : 64.0 Kbps
Channel(s) : 2 channels
Sampling rate : 44.1 KHz
Compression mode : Lossy
Stream size : 61.5 MiB (13%)
Alignment : Aligned on interleaves
Interleave, duration : 41 ms (1.02 video frame)
Interleave, preload duration : 52 ms



 :ss:






Special thanks to Maverick.dude for helping me...
 :download:





























Share this topic on FacebookShare this topic on GoogleShare this topic on MySpaceShare this topic on TwitterShare this topic on Yahoo




Tags:
 

Related Topics

  Subject / Started by Replies Last post
2 Replies
801 Views
Last post September 13, 2013, 03:41:27 AM
by Zohaib Ch
1 Replies
1034 Views
Last post September 22, 2013, 07:01:30 PM
by maniksinghal18
3 Replies
999 Views
Last post September 24, 2013, 04:25:03 PM
by ρяαηєєтgυρтα
1 Replies
622 Views
Last post October 11, 2013, 04:09:55 PM
by вkαмιт1988
6 Replies
1188 Views
Last post October 22, 2013, 12:03:10 PM
by mahe8h



Back to top