ShareSpark.net

:::: Hollywood Zone => Hollywood Movies (Pre Releases) => Topic started by: PSYCHO on January 12, 2018, 05:39:19 PM

Title: Darkest Hour 2017 DVDScr XVID AC3 [HQ Hive - CM8] 1.90GB
Post by: PSYCHO on January 12, 2018, 05:39:19 PM
Darkest Hour 2017 DVDScr XVID AC3 HQ Hive - CM8

(https://images-na.ssl-images-amazon.com/images/M/[email protected]_V1_QL50_SY1000_CR0,0,697,1000_AL_.jpg)

 :info:

IMDb : http://www.imdb.com/title/tt4555426/

Video
ID                                       : 0
Format                                   : MPEG-4 Visual
Format profile                           : Advanced [email protected]
Format settings                          : BVOP2 / QPel
Format settings, BVOP                    : 2
Format settings, QPel                    : Yes
Format settings, GMC                     : No warppoints
Format settings, Matrix                  : Default (H.263)
Muxing mode                              : Packed bitstream
Codec ID                                 : XVID
Codec ID/Hint                            : XviD
Duration                                 : 2 h 4 min
Bit rate                                 : 1 914 kb/s
Width                                    : 720 pixels
Height                                   : 384 pixels
Display aspect ratio                     : 1.85:1
Frame rate                               : 30.000 FPS
Color space                              : YUV
Chroma subsampling                       : 4:2:0
Bit depth                                : 8 bits
Scan type                                : Progressive
Compression mode                         : Lossy
Bits/(Pixel*Frame)                       : 0.231
Stream size                              : 1.67 GiB (88%)
Writing library                          : XviD 1.2.1 (UTC 2008-12-04)

Audio
ID                                       : 1
Format                                   : AC-3
Format/Info                              : Audio Coding 3
Format settings, Endianness              : Big
Codec ID                                 : 2000
Duration                                 : 2 h 4 min
Bit rate mode                            : Constant
Bit rate                                 : 256 kb/s
Channel(s)                               : 2 channels
Channel positions                        : Front: L R
Sampling rate                            : 48.0 kHz
Frame rate                               : 31.250 FPS (1536 SPF)
Bit depth                                : 16 bits
Compression mode                         : Lossy
Stream size                              : 229 MiB (12%)
Alignment                                : Split accross interleaves
Interleave, duration                     : 33  ms (1.00 video frame)
Interleave, preload duration             : 500  ms
Service kind                             : Complete Main


 :ss:

(http://imagecurl.com/images/71879440451406761428.jpg)


 :download:


https://uptobox.com/igkt714o5cqh

https://bdupload.info/6r6rji4w4x41

https://clicknupload.org/dcb8f0egiq0s

http://www.indishare.me/sghr3kz25hmc

https://userscloud.com/88crclm93604

https://tusfiles.net/o3cym588tmuu


Sample : https://tusfiles.net/7vyi1ivv8hwa