+ ShareSpark.net »  :::: Hollywood Zone » Hollywood Movies (Pre Releases)
|- Jumanji 2017 ENG CAM XViD [P2P] 1.36GB


Jumanji 2017 ENG CAM XViD [P2P] 1.36GB

0 Members and 1 Guest are viewing this topic.

December 28, 2017, 01:00:13 PM
  • Elite Moderator
  • Legend Member
  • ****
  • Topic Author
  • Thank You: 1995
  • Reputation: 286
  • Activity:
    76.8%
  • Country: in
  • Posts: 3704
  • Topics: 2845
  • Join Date: Sep 2016
  • (: EnJOy D LiFe :)
Jumanji 2017 ENG CAM XViD P2P



 :info:

Video
ID : 0
Format : MPEG-4 Visual
Format profile : Advanced [email protected]
Format settings : BVOP2 / QPel
Format settings, BVOP : 2
Format settings, QPel : Yes
Format settings, GMC : No warppoints
Format settings, Matrix : Default (H.263)
Muxing mode : Packed bitstream
Codec ID : XVID
Codec ID/Hint : XviD
Duration : 1 h 50 min
Bit rate : 1 555 kb/s
Width : 720 pixels
Height : 288 pixels
Display aspect ratio : 2.500
Frame rate : 29.970 (30000/1001) FPS
Color space : YUV
Chroma subsampling : 4:2:0
Bit depth : 8 bits
Scan type : Progressive
Compression mode : Lossy
Bits/(Pixel*Frame) : 0.250
Stream size : 1.20 GiB (88%)
Writing library : XviD 67

Audio
ID : 1
Format : MPEG Audio
Format version : Version 1
Format profile : Layer 3
Format settings : Joint stereo
Codec ID : 55
Codec ID/Hint : MP3
Duration : 1 h 50 min
Bit rate mode : Constant
Bit rate : 128 kb/s
Channel(s) : 2 channels
Sampling rate : 48.0 kHz
Frame rate : 41.667 FPS (1152 SPF)
Compression mode : Lossy
Stream size : 101 MiB (7%)
Alignment : Split accross interleaves
Writing library : LAME3.99r
Encoding settings : -m j -V 4 -q 2 -lowpass 17 -b 128



 :ss:










 :download:

















Share this topic on FacebookShare this topic on GoogleShare this topic on MySpaceShare this topic on TwitterShare this topic on Yahoo

« Last Edit: December 28, 2017, 01:07:42 PM by PSYCHO »


* BUSY *

Thanks given by:


Tags:
 

Related Topics

  Subject / Started by Replies Last post
0 Replies
397 Views
Last post March 21, 2017, 09:47:48 PM
by PSYCHO
0 Replies
519 Views
Last post April 03, 2017, 10:20:37 PM
by PSYCHO
0 Replies
286 Views
Last post April 08, 2017, 05:19:47 AM
by PSYCHO
0 Replies
192 Views
Last post November 10, 2017, 03:08:22 AM
by PSYCHO
0 Replies
244 Views
Last post December 06, 2017, 05:03:19 AM
by PSYCHO



Back to top