+ ShareSpark.net »  :::: Hollywood Zone » Hollywood Movies (Pre Releases)
|- Star Wars The Last Jedi 2017 CAM NEW SOURCES XViD - [26k] 1.65GB

Weekend Pay And Play 50% Off

Star Wars The Last Jedi 2017 CAM NEW SOURCES XViD - [26k] 1.65GB

0 Members and 1 Guest are viewing this topic.

December 28, 2017, 01:35:05 PM
  • Elite Moderator
  • Legend Member
  • ****
  • Topic Author
  • Thank You: 1996
  • Reputation: 286
  • Activity:
    2.6%
  • Country: in
  • Posts: 3716
  • Topics: 2852
  • Join Date: Sep 2016
  • (: EnJOy D LiFe :)
Star Wars The Last Jedi 2017 CAM NEW SOURCES XViD 26k



 :info:



Rey develops her newly discovered abilities with the guidance of Luke Skywalker, who is unsettled by the strength of her powers.
Meanwhile, the Resistance prepares to do battle with the First Order.

Sources - VIDEO: 720p ChiSub ....Thanks :P
        AUDIO: 720p ChiSub ....Thanks :P

Complete name               : Star.Wars.The.Last.Jedi.2017.CAM.NEW.SOURCES.XViD-26k.avi
Format                      : AVI
Format/Info                 : Audio Video Interleave
File size                   : 1.65 GiB
Duration                    : 2h 23mn
Overall bit rate            : 1 648 Kbps
Writing library             : VirtualDub build 32839/release

Video
ID                          : 0
Format                      : MPEG-4 Visual
Format profile              : Advanced [email protected]
Format settings, BVOP       : 2
Format settings, QPel       : Yes
Format settings, GMC        : No warppoints
Format settings, Matrix     : Default (H.263)
Muxing mode                 : Packed bitstream
Codec ID                    : XVID
Codec ID/Hint               : XviD
Duration                    : 2h 23mn
Bit rate                    : 1 508 Kbps
Width                       : 720 pixels
Height                      : 288 pixels
Display aspect ratio        : 2.500
Frame rate                  : 29.970 fps
Color space                 : YUV
Chroma subsampling          : 4:2:0
Bit depth                   : 8 bits
Scan type                   : Progressive
Compression mode            : Lossy
Bits/(Pixel*Frame)          : 0.243
Stream size                 : 1.51 GiB (92%)
Writing library             : XviD 67

Audio
ID                          : 1
Format                      : MPEG Audio
Format version              : Version 1
Format profile              : Layer 3
Mode                        : Joint stereo
Mode extension              : MS Stereo
Codec ID                    : 55
Codec ID/Hint               : MP3
Duration                    : 2h 23mn
Bit rate mode               : Constant
Bit rate                    : 128 Kbps
Channel(s)                  : 2 channels
Sampling rate               : 48.0 KHz
Compression mode            : Lossy
Stream size                 : 131 MiB (8%)
Alignment                   : Split accross interleaves
Interleave, duration        : 33 ms (1.00 video frame)
Writing library             : LAME3.99r
Encoding settings           : -m j -V 4 -q 2 -lowpass 17 -b 128

Notes -
Took the source we were passed and went to work perspectives, crop (chairs and chisubs) , resize, denoise and
few other tweaks then just muxed the audio back to it.. ENJOY ...
BTW THIS IS A CHISUB SOURCE THAT SUMBODY TAGGED AS KORSUBS.. LEARN THE DIFFERENCE IN THE 2 THEY ARE VERY DIFFERENT
WE WERE WRONG ON LAST VERSION OF THIS.. BUT NOW YOU WONT GET NO BETTER THAN THIS TIL WEB-DL OR DVDSCR


 :ss:










 :download:















Sample 1 :

Sample 2:






Share this topic on FacebookShare this topic on GoogleShare this topic on MySpaceShare this topic on TwitterShare this topic on Yahoo

« Last Edit: December 28, 2017, 01:47:23 PM by PSYCHO »


* BUSY *

Thanks given by:


Tags:
 

Related Topics




Back to top