+ ShareSpark.net »  :::: Hollywood Zone » Hollywood Movies (Pre Releases)
|- The Disaster Artist 2017 DVDScr XVID AC3 [HQ Hive-CM8] 1.41GB


100% DTH Offer

The Disaster Artist 2017 DVDScr XVID AC3 [HQ Hive-CM8] 1.41GB

0 Members and 1 Guest are viewing this topic.

December 31, 2017, 08:39:49 AM
  • Elite Moderator
  • Legend Member
  • ****
  • Topic Author
  • Thank You: 2000
  • Reputation: 286
  • Activity:
    3.6%
  • Country: in
  • Posts: 3722
  • Topics: 2854
  • Join Date: Sep 2016
  • (: EnJOy D LiFe :)
The Disaster Artist 2017 DVDScr XVID AC3 HQ Hive-CM8



 :info:

IMDb :


Video
ID                                       : 0
Format                                   : MPEG-4 Visual
Format profile                           : Advanced [email protected]
Format settings                          : BVOP2 / QPel
Format settings, BVOP                    : 2
Format settings, QPel                    : Yes
Format settings, GMC                     : No warppoints
Format settings, Matrix                  : Default (H.263)
Muxing mode                              : Packed bitstream
Codec ID                                 : XVID
Codec ID/Hint                            : XviD
Duration                                 : 1 h 43 min
Bit rate                                 : 1 676 kb/s
Width                                    : 720 pixels
Height                                   : 304 pixels
Display aspect ratio                     : 2.35:1
Frame rate                               : 30.000 FPS
Color space                              : YUV
Chroma subsampling                       : 4:2:0
Bit depth                                : 8 bits
Scan type                                : Progressive
Compression mode                         : Lossy
Bits/(Pixel*Frame)                       : 0.255
Stream size                              : 1.21 GiB (86%)
Writing library                          : XviD 1.2.1 (UTC 2008-12-04)

Audio
ID                                       : 1
Format                                   : AC-3
Format/Info                              : Audio Coding 3
Format settings, Endianness              : Big
Codec ID                                 : 2000
Duration                                 : 1 h 43 min
Bit rate mode                            : Constant
Bit rate                                 : 256 kb/s
Channel(s)                               : 2 channels
Channel positions                        : Front: L R
Sampling rate                            : 48.0 kHz
Frame rate                               : 31.250 FPS (1536 SPF)
Bit depth                                : 16 bits
Compression mode                         : Lossy
Delay relative to video                  : 6 ms
Stream size                              : 189 MiB (13%)
Alignment                                : Split accross interleaves
Interleave, duration                     : 33  ms (1.00 video frame)
Interleave, preload duration             : 500  ms
Service kind                             : Complete Main


 :ss:




 :download:















Sample :





Share this topic on FacebookShare this topic on GoogleShare this topic on MySpaceShare this topic on TwitterShare this topic on Yahoo



* BUSY *

Thanks given by:


Tags:
 

Related Topics

  Subject / Started by Replies Last post
0 Replies
696 Views
Last post December 31, 2017, 09:18:21 AM
by PSYCHO
0 Replies
578 Views
Last post January 03, 2018, 12:36:29 PM
by ♫♪ RΩCK BΩY ♥♫
0 Replies
749 Views
Last post January 04, 2018, 11:36:01 AM
by Rάήνίјάч1234
0 Replies
512 Views
Last post February 28, 2018, 09:25:26 AM
by тнє ωαll 81317
0 Replies
461 Views
Last post February 28, 2018, 08:19:42 PM
by UnikAaYush




Back to top