+ ShareSpark.net »  :::: Bollywood Zone » Indian TV Shows
|- Zee cine Awards (2018) 360p SDTV AAC 2.0 Team Jio Exclusive


Zee cine Awards (2018) 360p SDTV AAC 2.0 Team Jio Exclusive

0 Members and 1 Guest are viewing this topic.

December 31, 2017, 12:21:37 PM
  • Global Moderator
  • Legend Member
  • *****
  • Topic Author
  • Thank You: 6061
  • Reputation: 1289
  • Activity:
    100%
  • Country: in
  • Posts: 4020
  • Topics: 3364
  • Join Date: Jan 2014
  • ıllıllı ѕмoĸιng ιѕ good ғor нealтн ıllıllı :)
Zee cine Awards (2018) 360p SDTV AAC 2.0 Team Jio Exclusive



Quote
Format                      : MPEG-4
Format profile              : Base Media
Codec ID                    : isom (isom/iso2/avc1/mp41)
File size                   : 722 MiB
Duration                    : 2 h 54 min
Overall bit rate mode       : Variable
Overall bit rate            : 577 kb/s
Writing application         : Lavf56.40.101

Video
ID                          : 1
Format                      : AVC
Format/Info                 : Advanced Video Codec
Format profile              : [email protected]
Format settings             : CABAC / 2 Ref Frames
Format settings, CABAC      : Yes
Format settings, ReFrames   : 2 frames
Codec ID                    : avc1
Codec ID/Info               : Advanced Video Coding
Duration                    : 2 h 54 min
Bit rate mode               : Variable
Bit rate                    : 510 kb/s
Maximum bit rate            : 563 kb/s
Width                       : 640 pixels
Height                      : 360 pixels
Display aspect ratio        : 16:9
Frame rate mode             : Constant
Frame rate                  : 25.000 FPS
Color space                 : YUV
Chroma subsampling          : 4:2:0
Bit depth                   : 8 bits
Scan type                   : Progressive
Bits/(Pixel*Frame)          : 0.088
Stream size                 : 638 MiB (88%)

Audio
ID                          : 2
Format                      : AAC
Format/Info                 : Advanced Audio Codec
Format profile              : LC
Codec ID                    : mp4a-40-2
Duration                    : 2 h 54 min
Bit rate mode               : Constant
Bit rate                    : 61.4 kb/s
Channel(s)                  : 2 channels
Channel positions           : Front: L R
Sampling rate               : 48.0 kHz
Frame rate                  : 46.875 FPS (1024 SPF)
Compression mode            : Lossy
Stream size                 : 76.8 MiB (11%)
Default                     : Yes
Alternate group             : 1

:ss:





:download:

Quote











File Leeched & Uploaded From




Don't walk as you are king, walk as you don't care who the king is....!!
Never argue with an idiot. They drag you down to their level and then beat you with experience?

Share this topic on FacebookShare this topic on GoogleShare this topic on MySpaceShare this topic on TwitterShare this topic on Yahoo




Don't walk as you are king, walk as you don't care who the king is....!!

Thanks given by:


Tags:
 

Related Topics

  Subject / Started by Replies Last post
0 Replies
687 Views
Last post February 23, 2014, 08:13:37 PM
by the rockey
0 Replies
791 Views
Last post February 25, 2014, 04:40:58 PM
by Bozdar Jaan
1 Replies
921 Views
Last post February 26, 2014, 10:25:52 AM
by keshav83
2 Replies
987 Views
Last post January 01, 2018, 12:42:37 AM
by sunnybaba
0 Replies
816 Views
Last post February 26, 2018, 05:55:36 PM
by UnikAaYush



Back to top