+ ShareSpark.net »  :::: Bollywood Zone » Indian TV Shows
|- Zee cine Awards (2018) 720p HDTV AAC 2.0 Team Jio Exclusive


  • Zee cine Awards (2018) 720p HDTV AAC 2.0 Team Jio Exclusive 3 2
Currently:  

Zee cine Awards (2018) 720p HDTV AAC 2.0 Team Jio Exclusive

0 Members and 1 Guest are viewing this topic.

December 31, 2017, 12:34:57 PM
  • Global Moderator
  • Legend Member
  • *****
  • Topic Author
  • Thank You: 4658
  • Reputation: 921
  • Activity:
    100%
  • Country: in
  • Posts: 3655
  • Topics: 3071
  • Join Date: Jan 2014
  • ıllıllı ѕмoĸιng ιѕ good ғor нealтн ıllıllı :)
Zee cine Awards (2018) 720p HDTV AAC 2.0 Team Jio Exclusive



Quote
Format                      : MPEG-4
Format profile              : Base Media
Codec ID                    : isom (isom/iso2/avc1/mp41)
File size                   : 5.71 GiB
Duration                    : 3 h 16 min
Overall bit rate            : 4 161 kb/s
Writing application         : Lavf56.36.100

Video
ID                          : 1
Format                      : AVC
Format/Info                 : Advanced Video Codec
Format profile              : [email protected]
Format settings             : 2 Ref Frames
Format settings, CABAC      : No
Format settings, ReFrames   : 2 frames
Codec ID                    : avc1
Codec ID/Info               : Advanced Video Coding
Duration                    : 3 h 16 min
Bit rate                    : 4 000 kb/s
Width                       : 1 280 pixels
Height                      : 720 pixels
Display aspect ratio        : 16:9
Frame rate mode             : Variable
Frame rate                  : 60.000 FPS
Minimum frame rate          : 18.732 FPS
Maximum frame rate          : 60.000 FPS
Color space                 : YUV
Chroma subsampling          : 4:2:0
Bit depth                   : 8 bits
Scan type                   : Progressive
Bits/(Pixel*Frame)          : 0.072
Stream size                 : 5.51 GiB (97%)


Audio
ID                          : 2
Format                      : AAC
Format/Info                 : Advanced Audio Codec
Format profile              : LC
Codec ID                    : mp4a-40-2
Duration                    : 3 h 16 min
Bit rate mode               : Constant
Bit rate                    : 132 kb/s
Channel(s)                  : 2 channels
Channel(s)_Original         : 6 channels
Channel positions           : Front: L C R, Side: L R, LFE
Sampling rate               : 48.0 kHz
Frame rate                  : 46.875 FPS (1024 SPF)
Compression mode            : Lossy
Stream size                 : 183 MiB (3%)
Default                     : Yes
Alternate group             : 1

:ss:





:download:

Quote






File Leeched & Uploaded From




Don't walk as you are king, walk as you don't care who the king is....!!
Never argue with an idiot. They drag you down to their level and then beat you with experience?

Share this topic on FacebookShare this topic on GoogleShare this topic on MySpaceShare this topic on TwitterShare this topic on Yahoo




Don't walk as you are king, walk as you don't care who the king is....!!

Thanks given by:


December 31, 2017, 11:10:16 PM
Reply #1
  • Royal Member
  • ****
  • Thank You: 158
  • Reputation: 66
  • Activity:
    20%
  • Country: sa
  • Posts: 971
  • Topics: 95
  • Join Date: Jan 2017
  • ShareSpark Member

January 01, 2018, 12:42:37 AM
Reply #2
  • Devoted Member
  • **
  • Thank You: 13
  • Reputation: 3
  • Activity:
    5.4%
  • Country: pk
  • Posts: 119
  • Topics: 28
  • Join Date: Sep 2013
  • ShareSpark Member
« Last Edit: January 01, 2018, 12:44:06 AM by sunnybaba »

Tags:
 

Related Topics

  Subject / Started by Replies Last post
0 Replies
630 Views
Last post February 23, 2014, 08:13:37 PM
by the rockey
0 Replies
732 Views
Last post February 25, 2014, 04:40:58 PM
by Bozdar Jaan
1 Replies
835 Views
Last post February 26, 2014, 10:25:52 AM
by keshav83
5 Replies
1657 Views
Last post March 07, 2016, 10:02:00 PM
by Deepa11
0 Replies
261 Views
Last post December 31, 2017, 12:21:37 PM
by Rάήνίјάч1234




Back to top