+ ShareSpark.net »  :::: Bollywood Zone » Indian TV Shows
|- Star Screen Awards (2017) Main event 720p HDTV AAC.2.0 Team Jio


Star Screen Awards (2017) Main event 720p HDTV AAC.2.0 Team Jio

0 Members and 1 Guest are viewing this topic.

January 01, 2018, 08:01:50 AM
  • Admin
  • Legend Member
  • ****
  • Topic Author
  • Thank You: 1645
  • Reputation: 366
  • Activity:
    24%
  • Country: in
  • Posts: 3281
  • Topics: 1982
  • Join Date: Dec 2013
  • ShareSpark Member

Star Screen Awards (2017) Main event 720p HDTV AAC.2.0 Team Jio
   

   



Poster





















 
Format                      : MPEG-4
Format profile              : Base Media
Codec ID                    : isom (isom/iso2/avc1/mp41)
File size                   : 2.22 GiB
Duration                    : 2 h 33 min
Overall bit rate mode       : Variable
Overall bit rate            : 2 067 kb/s
Writing application         : Lavf56.40.101

Video
ID                          : 1
Format                      : AVC
Format/Info                 : Advanced Video Codec
Format profile              : [email protected]
Format settings             : CABAC / 1 Ref Frames
Format settings, CABAC      : Yes
Format settings, ReFrames   : 1 frame
Format settings, GOP        : M=1, N=25
Codec ID                    : avc1
Codec ID/Info               : Advanced Video Coding
Duration                    : 2 h 33 min
Bit rate mode               : Constant
Bit rate                    : 2 000 kb/s
Width                       : 1 280 pixels
Height                      : 720 pixels
Display aspect ratio        : 16:9
Frame rate mode             : Constant
Frame rate                  : 25.000 FPS
Color space                 : YUV
Chroma subsampling          : 4:2:0
Bit depth                   : 8 bits
Scan type                   : Progressive
Bits/(Pixel*Frame)          : 0.087
Stream size                 : 2.15 GiB (97%)

Audio
ID                          : 2
Format                      : AAC
Format/Info                 : Advanced Audio Codec
Format profile              : LC
Codec ID                    : mp4a-40-2
Duration                    : 2 h 33 min
Bit rate mode               : Variable
Bit rate                    : 61.4 kb/s
Maximum bit rate            : 63.8 kb/s
Channel(s)                  : 2 channels
Channel positions           : Front: L R
Sampling rate               : 48.0 kHz
Frame rate                  : 46.875 FPS (1024 SPF)
Compression mode            : Lossy
Stream size                 : 67.6 MiB (3%)
Default                     : Yes
Alternate group             : 1




All Credit Goes To Original Uploader









      


















      
      

Share this topic on FacebookShare this topic on GoogleShare this topic on MySpaceShare this topic on TwitterShare this topic on Yahoo

« Last Edit: January 01, 2018, 08:22:20 AM by тнє ωαll 81317 »



Thanks given by:


January 01, 2018, 10:53:01 PM
Reply #1
  • Royal Member
  • ****
  • Thank You: 158
  • Reputation: 66
  • Activity:
    20%
  • Country: sa
  • Posts: 971
  • Topics: 95
  • Join Date: Jan 2017
  • ShareSpark Member

Tags:
 

Related Topics





Back to top