+ ShareSpark.net »  :::: Hollywood Zone » Hollywood Movies (Pre Releases)
|- Wonder Wheel 2017 DVDScr XVID AC3 HQ Hive-CM8

Subscribe and Save

Wonder Wheel 2017 DVDScr XVID AC3 HQ Hive-CM8

0 Members and 1 Guest are viewing this topic.

January 04, 2018, 11:40:19 AM
  • Global Moderator
  • Legend Member
  • *****
  • Topic Author
  • Thank You: 8230
  • Reputation: 1784
  • Activity:
    100%
  • Country: in
  • Posts: 4710
  • Topics: 3916
  • Join Date: Jan 2014
  • ıllıllı ѕмoĸιng ιѕ good ғor нealтн ıllıllı :)
Wonder Wheel 2017 DVDScr XVID AC3 HQ Hive-CM8



:info:

Quote
CM8 Doing It Right The First Time

Source: a cool dude on the street
thx

Notes:
one more goodie
Don´t forget watching a scr is not like the real thing, you should still all go to the cinema and support the Producers, thx
We especially sharing this for the people who cant visit the cinema due to illness or because it is a limited release that doesnt make it to their country,
so that they also can experience some award nominations.

Encode:
quality was nice, not much to do
enjoy


Screeners:
We are still missing suburbicon,downsizing, hostiles and phantom thread, anyone want to share for the collection?
Don't post info public or on any blog its too risky, it has to be done safely and secure in private, and we have proven that we can do it.
Msg us [email protected] - we will respect your wishes
if you want to share with us in private it will stay private

Video: 720x368 @bitrate 1700 2pass
Audio: English Stereo
Sample: yes included





General
Complete name                  : Wonder.Wheel.2017.DVDScr.XVID.AC3.HQ.Hive-CM8.avi
Format                         : AVI
Format/Info                    : Audio Video Interleave
File size                      : 1.47 GiB
Duration                       : 1h 40mn
Overall bit rate               : 2 098 Kbps
Writing application            : Nandub v1.0rc2
Writing library                : Nandub build 1853/release

Video
ID                             : 0
Format                         : MPEG-4 Visual
Format profile                 : Advanced [email protected]
Format settings, BVOP          : 2
Format settings, QPel          : Yes
Format settings, GMC           : No warppoints
Format settings, Matrix        : Default (H.263)
Muxing mode                    : Packed bitstream
Codec ID                       : XVID
Codec ID/Hint                  : XviD
Duration                       : 1h 40mn
Bit rate                       : 1 830 Kbps
Width                          : 720 pixels
Height                         : 368 pixels
Display aspect ratio           : 1.957
Frame rate                     : 30.000 fps
Color space                    : YUV
Chroma subsampling             : 4:2:0
Bit depth                      : 8 bits
Scan type                      : Progressive
Compression mode               : Lossy
Bits/(Pixel*Frame)             : 0.230
Stream size                    : 1.28 GiB (87%)
Writing library                : XviD 1.2.1 (UTC 2008-12-04)

Audio
ID                             : 1
Format                         : AC-3
Format/Info                    : Audio Coding 3
Mode extension                 : CM (complete main)
Format settings, Endianness    : Big
Codec ID                       : 2000
Duration                       : 1h 40mn
Bit rate mode                  : Constant
Bit rate                       : 256 Kbps
Channel(s)                     : 2 channels
Channel positions              : Front: L R
Sampling rate                  : 48.0 KHz
Bit depth                      : 16 bits
Compression mode               : Lossy
Delay relative to video        : 18ms
Stream size                    : 184 MiB (12%)
Alignment                      : Split accross interleaves
Interleave, duration           : 33 ms (1.00 video frame)
Interleave, preload duration   : 500 ms






:download:

Quote












File Leeched & Uploaded From




Don't walk as you are king, walk as you don't care who the king is....!!
Never argue with an idiot. They drag you down to their level and then beat you with experience?

Share this topic on FacebookShare this topic on GoogleShare this topic on MySpaceShare this topic on TwitterShare this topic on Yahoo




Don't walk as you are king, walk as you don't care who the king is....!!

Thanks given by:


Tags:
 

Related Topics

  Subject / Started by Replies Last post
0 Replies
448 Views
Last post December 31, 2017, 08:39:49 AM
by PSYCHO
0 Replies
519 Views
Last post January 04, 2018, 11:03:24 AM
by PSYCHO
0 Replies
682 Views
Last post January 04, 2018, 11:36:01 AM
by Rάήνίјάч1234
0 Replies
864 Views
Last post January 08, 2018, 09:52:55 AM
by PSYCHO
0 Replies
885 Views
Last post January 12, 2018, 05:39:19 PM
by PSYCHO



Back to top