+ ShareSpark.net »  :::: Dubbed Zone (Dubbed English in Hindi) » English Movies Dubbed in Hindi
|- Hyenas 2011 720p BluRay Dual Audio English Hindi GOPISAHI


New Promotions of ShareSpark Member's (January 2018) New
Tag users in topic | Receive notifications when you are tagged

Hyenas 2011 720p BluRay Dual Audio English Hindi GOPISAHI

0 Members and 1 Guest are viewing this topic.

January 05, 2018, 08:02:56 PM
  • Addic7ed
  • Hot Member
  • ****
  • Topic Author
  • Thank You: 284
  • Reputation: 67
  • Activity:
    59.2%
  • Country: in
  • Posts: 568
  • Topics: 529
  • Join Date: Oct 2013
  • ShareSpark Member

Format                         : Matroska
Format version                 : Version 4 / Version 2
File size                      : 575 MiB
Duration                       : 1 h 32 min
Overall bit rate               : 867 kb/s
Movie name                     : Hyenas 2011

Video
Format                         : AVC
Codec ID                       : V_MPEG4/ISO/AVC
Duration                       : 1 h 32 min
Bit rate                       : 700 kb/s
Width                          : 1 280 pixels
Height                         : 720 pixels
Display aspect ratio           : 16:9
Frame rate mode                : Constant
Frame rate                     : 23.976 (24000/1001) FPS
Stream size                    : 464 MiB (81%)
Writing library                : x264 core 152 r2851 ba24899

Audio #1
Format                         : AAC
Duration                       : 1 h 32 min
Bit rate                       : 87.3 kb/s
Channel(s)                     : 6 channels
Channel positions              : Front: L C R, Side: L R, LFE
Sampling rate                  : 44.1 kHz
Frame rate                     : 43.066 FPS (1024 SPF)
Stream size                    : 57.9 MiB (10%)
Language                       : English

Audio #2
Format                         : AAC
Duration                       : 1 h 32 min
Bit rate                       : 77.6 kb/s
Channel(s)                     : 6 channels
Channel positions              : Front: L C R, Side: L R, LFE
Sampling rate                  : 44.1 kHz
Frame rate                     : 43.066 FPS (1024 SPF)
Compression mode               : Lossy
Stream size                    : 51.5 MiB (9%)
Language                       : Hindi









Share this topic on FacebookShare this topic on GoogleShare this topic on MySpaceShare this topic on TwitterShare this topic on Yahoo




January 11, 2018, 08:31:42 AM
Reply #1
  • Begginer
  • **
  • Thank You: 0
  • Reputation: 5
  • Activity:
    16.8%
  • Country: in
  • Posts: 80
  • Topics: 0
  • Join Date: Dec 2016
  • ShareSpark Member
ye print sahi nahi h bahut gliches hain.

Tags:
 

Related Topics

  Subject / Started by Replies Last post
1 Replies
725 Views
Last post July 10, 2013, 08:28:49 AM
by sσи¡иdєяsσиý
1 Replies
658 Views
Last post July 16, 2013, 10:56:26 PM
by harman786
0 Replies
284 Views
Last post November 08, 2017, 09:51:34 AM
by jattsahi2
0 Replies
211 Views
Last post November 15, 2017, 04:34:40 PM
by jattsahi2
0 Replies
277 Views
Last post November 17, 2017, 01:55:00 PM
by jattsahi2




Back to top