+ ShareSpark.net »  :::: Hollywood Zone » Hollywood Movies (Pre Releases)
|- The Shape of Water 2017 DVDScr XVID AC3 [HQ Hive-CM8] 1.71GB


The Shape of Water 2017 DVDScr XVID AC3 [HQ Hive-CM8] 1.71GB

0 Members and 1 Guest are viewing this topic.

January 08, 2018, 09:52:55 AM
  • Elite Moderator
  • Legend Member
  • ****
  • Topic Author
  • Thank You: 1963
  • Reputation: 274
  • Activity:
    100%
  • Country: in
  • Posts: 3682
  • Topics: 2827
  • Join Date: Sep 2016
  • (: EnJOy D LiFe :)
The Shape of Water 2017 DVDScr XVID AC3 HQ Hive-CM8



 :info:

IMDb :


Notes:
Since this title has a very good chance of winning it all and we dont want to interfere we waited till gross meets budget and give the movie a fair chance
Don´t forget watching a scr is not like the real thing, you should still all go to the cinema and support the Producers, thx
We especially sharing this for the people who cant visit the cinema due to illness or because it is a limited release that doesnt make it to their country,
so that they also can experience some award nominations.

Encode:
quality was nice, not much to do enjoy


Video: 720x384 @bitrate 1700 2pass
Audio: English Stereo
Sample: yes included

General
Complete name                  : The.Shape.of.Water.2017.DVDScr.XVID.AC3.HQ.Hive-CM8.avi
Format                         : AVI
Format/Info                    : Audio Video Interleave
File size                      : 1.71 GiB
Duration                       : 2h 2mn
Overall bit rate               : 1 993 Kbps
Writing application            : Nandub v1.0rc2
Writing library                : Nandub build 1853/release

Video
ID                             : 0
Format                         : MPEG-4 Visual
Format profile                 : Advanced [email protected]
Format settings, BVOP          : 2
Format settings, QPel          : Yes
Format settings, GMC           : No warppoints
Format settings, Matrix        : Default (H.263)
Muxing mode                    : Packed bitstream
Codec ID                       : XVID
Codec ID/Hint                  : XviD
Duration                       : 2h 2mn
Bit rate                       : 1 725 Kbps
Width                          : 720 pixels
Height                         : 384 pixels
Display aspect ratio           : 1.85:1
Frame rate                     : 30.000 fps
Color space                    : YUV
Chroma subsampling             : 4:2:0
Bit depth                      : 8 bits
Scan type                      : Progressive
Compression mode               : Lossy
Bits/(Pixel*Frame)             : 0.208
Stream size                    : 1.48 GiB (87%)
Writing library                : XviD 1.2.1 (UTC 2008-12-04)

Audio
ID                             : 1
Format                         : AC-3
Format/Info                    : Audio Coding 3
Mode extension                 : CM (complete main)
Format settings, Endianness    : Big
Codec ID                       : 2000
Duration                       : 2h 2mn
Bit rate mode                  : Constant
Bit rate                       : 256 Kbps
Channel(s)                     : 2 channels
Channel positions              : Front: L R
Sampling rate                  : 48.0 KHz
Bit depth                      : 16 bits
Compression mode               : Lossy
Delay relative to video        : 26ms
Stream size                    : 225 MiB (13%)
Alignment                      : Split accross interleaves
Interleave, duration           : 33 ms (1.00 video frame)
Interleave, preload duration   : 500 ms


 :ss:












 :download:















Sample :






Share this topic on FacebookShare this topic on GoogleShare this topic on MySpaceShare this topic on TwitterShare this topic on Yahoo

« Last Edit: January 08, 2018, 09:59:59 AM by PSYCHO »


* BUSY *


Tags:
 

Related Topics

  Subject / Started by Replies Last post
0 Replies
149 Views
Last post December 31, 2017, 08:39:49 AM
by PSYCHO
0 Replies
177 Views
Last post January 04, 2018, 11:36:01 AM
by Rάήνίјάч1234
0 Replies
254 Views
Last post January 04, 2018, 11:40:19 AM
by Rάήνίјάч1234
0 Replies
105 Views
Last post January 08, 2018, 09:39:12 AM
by PSYCHO
0 Replies
121 Views
Last post January 11, 2018, 01:21:16 PM
by UnikAaYush




Back to top