+ ShareSpark.net »  :::: Dubbed Zone (Dubbed English in Hindi) » English Movies Dubbed in Hindi
|- P2 2007 720p BluRay x264 Dual Audio [Hindi - English 2.0] ESub


New Promotions of ShareSpark Member's (January 2018) New
Tag users in topic | Receive notifications when you are tagged

P2 2007 720p BluRay x264 Dual Audio [Hindi - English 2.0] ESub

0 Members and 1 Guest are viewing this topic.

January 08, 2018, 10:46:03 AM
  • Team SSX
  • Devoted Member
  • ***
  • Topic Author
  • Thank You: 24
  • Reputation: 21
  • Activity:
    40.6%
  • Country: fr
  • Posts: 193
  • Topics: 109
  • Join Date: Dec 2017
  • ShareSpark Member
P2 2007 720p BluRay x264 Dual Audio [Hindi - English 2.0] ESub


Code: [Select]
General
Format : Matroska
Format version : Version 4 / Version 2
File size : 876 MiB
Duration : 1 h 37 min
Overall bit rate : 1 256 kb/s

Video
ID : 1
Format : AVC
Format/Info : Advanced Video Codec
Format profile : [email protected]
Format settings : CABAC / 12 Ref Frames
Format settings, CABAC : Yes
Format settings, ReFrames : 12 frames
Codec ID : V_MPEG4/ISO/AVC
Duration : 1 h 37 min
Bit rate : 1 015 kb/s
Width : 1 280 pixels
Height : 544 pixels
Display aspect ratio : 2.35:1
Frame rate mode : Constant
Frame rate : 23.976 FPS
Color space : YUV
Chroma subsampling : 4:2:0
Bit depth : 8 bits
Scan type : Progressive
Bits/(Pixel*Frame) : 0.061
Stream size : 695 MiB (79%)
Writing library : x264 core 148 r2795 aaa9aa8
Default : Yes
Forced : No

Audio #1
ID : 2
Format : AAC
Format/Info : Advanced Audio Codec
Format profile : LC
Codec ID : A_AAC-2
Duration : 1 h 37 min
Bit rate : 129 kb/s
Channel(s) : 2 channels
Channel positions : Front: L R
Sampling rate : 48.0 kHz
Frame rate : 46.875 FPS (1024 SPF)
Compression mode : Lossy
Delay relative to video : -43 ms
Stream size : 90.1 MiB (10%)
Language : Hindi
Default : Yes
Forced : No

Audio #2
ID : 3
Format : AAC
Format/Info : Advanced Audio Codec
Format profile : LC
Codec ID : A_AAC-2
Duration : 1 h 37 min
Bit rate : 128 kb/s
Channel(s) : 2 channels
Channel positions : Front: L R
Sampling rate : 48.0 kHz
Frame rate : 46.875 FPS (1024 SPF)
Compression mode : Lossy
Delay relative to video : -43 ms
Stream size : 89.3 MiB (10%)
Language : English
Default : No
Forced : No

Text
ID : 4
Format : UTF-8
Codec ID : S_TEXT/UTF8
Codec ID/Info : UTF-8 Plain Text
Duration : 1 h 31 min
Bit rate : 35 b/s
Count of elements : 722
Stream size : 23.6 KiB (0%)
Default : Yes
Forced : No 











Code: [Select]
http://filecloud.io/uep5vntmk
http://uptobox.com/lqbrhv49q1xj
http://www.indishare.me/w34sbnog2bxt
https://bdupload.info/d22dm2s200ve


Share this topic on FacebookShare this topic on GoogleShare this topic on MySpaceShare this topic on TwitterShare this topic on Yahoo




Tags:
 

Related Topics

  Subject / Started by Replies Last post
1 Replies
1035 Views
Last post November 28, 2016, 08:23:18 AM
by deepak.yadav
0 Replies
357 Views
Last post September 03, 2017, 06:57:31 AM
by jattsahi2
0 Replies
265 Views
Last post October 20, 2017, 06:31:04 AM
by jattsahi2
0 Replies
429 Views
Last post October 23, 2017, 06:54:31 AM
by jattsahi2
0 Replies
377 Views
Last post November 06, 2017, 11:27:58 AM
by HdDownloaD3




Back to top