+ ShareSpark.net »  :::: Dubbed Zone (Dubbed English in Hindi) » English Movies Dubbed in Hindi
|- The Foreigner 2017 720p BluRay x264 Dual Audio [Hindi DD 5.1 - English 2.0] ESub


New Promotions of ShareSpark Member's (January 2018) New
Tag users in topic | Receive notifications when you are tagged

The Foreigner 2017 720p BluRay x264 Dual Audio [Hindi DD 5.1 - English 2.0] ESub

0 Members and 1 Guest are viewing this topic.

January 08, 2018, 11:24:18 AM
  • Team SSX
  • Devoted Member
  • ***
  • Topic Author
  • Thank You: 24
  • Reputation: 21
  • Activity:
    40.6%
  • Country: fr
  • Posts: 193
  • Topics: 109
  • Join Date: Dec 2017
  • ShareSpark Member
The Foreigner 2017 720p BluRay x264 Dual Audio [Hindi DD 5.1 - English 2.0] ESub


Code: [Select]
General
Format : Matroska
Format version : Version 4 / Version 2
File size : 985 MiB
Duration : 1 h 53 min
Overall bit rate : 1 209 kb/s

Video
ID : 1
Format : AVC
Format/Info : Advanced Video Codec
Format profile : [email protected]
Format settings : CABAC / 4 Ref Frames
Format settings, CABAC : Yes
Format settings, ReFrames : 4 frames
Codec ID : V_MPEG4/ISO/AVC
Duration : 1 h 53 min
Bit rate : 900 kb/s
Width : 1 280 pixels
Height : 534 pixels
Display aspect ratio : 2.40:1
Original display aspect rat : 2.40:1
Frame rate mode : Constant
Frame rate : 23.976 FPS
Color space : YUV
Chroma subsampling : 4:2:0
Bit depth : 8 bits
Scan type : Progressive
Bits/(Pixel*Frame) : 0.055
Stream size : 733 MiB (74%)
Writing library : x264 core 148
Default : Yes
Forced : No

Audio #1
ID : 2
Format : AC-3
Format/Info : Audio Coding 3
Codec ID : A_AC3
Duration : 1 h 53 min
Bit rate mode : Constant
Bit rate : 192 kb/s
Channel(s) : 6 channels
Channel positions : Front: L C R, Side: L R, LFE
Sampling rate : 44.1 kHz
Frame rate : 28.711 FPS (1536 SPF)
Bit depth : 16 bits
Compression mode : Lossy
Delay relative to video : -43 ms
Stream size : 156 MiB (16%)
Language : Hindi
Service kind : Complete Main
Default : Yes
Forced : No

Audio #2
ID : 3
Format : AAC
Format/Info : Advanced Audio Codec
Format profile : LC
Codec ID : A_AAC-2
Duration : 1 h 53 min
Bit rate : 115 kb/s
Channel(s) : 2 channels
Channel positions : Front: L R
Sampling rate : 48.0 kHz
Frame rate : 46.875 FPS (1024 SPF)
Compression mode : Lossy
Delay relative to video : -43 ms
Stream size : 93.7 MiB (10%)
Language : English
Default : No
Forced : No

Text
ID : 4
Format : UTF-8
Codec ID : S_TEXT/UTF8
Codec ID/Info : UTF-8 Plain Text
Duration : 1 h 44 min
Bit rate : 52 b/s
Count of elements : 1212
Stream size : 40.3 KiB (0%)
Default : Yes
Forced : No











Code: [Select]
http://filecloud.io/69anp15eo
http://uptobox.com/p1qdfs2cuarf
http://www.indishare.me/lnxjz7cbypne
https://bdupload.info/cns9rrm3bm53

Share this topic on FacebookShare this topic on GoogleShare this topic on MySpaceShare this topic on TwitterShare this topic on Yahoo



Thanks given by:


Tags:
 

Related Topics





Back to top