+ ShareSpark.net »  :::: Hollywood Zone » Hollywood Movies (Pre Releases)
|- Mollys.Game.2017 .720p.CamRip.H264-Creampie(Sample)


Mollys.Game.2017 .720p.CamRip.H264-Creampie(Sample)

0 Members and 1 Guest are viewing this topic.

January 09, 2018, 12:19:22 PM
  • Addic7ed
  • Royal Member
  • ****
  • Topic Author
  • Thank You: 381
  • Reputation: 136
  • Activity:
    100%
  • Posts: 921
  • Topics: 579
  • Join Date: May 2017
  • #Me

 :plot:

Complete name : Mollys.Game.2017 .720p.CamRip.H264
Format : MPEG-4
Format profile : Base Media
Codec ID : isom (isom/iso2/avc1/mp41)
File size : 855 MiB
Duration : 2 h 3 min
Overall bit rate : 966 kb/s
Writing application : Lavf57.56.101

Video
ID : 1
Format : AVC
Format/Info : Advanced Video Codec
Format profile : [email protected]
Format settings : CABAC / 4 Ref Frames
Format settings, CABAC : Yes
Format settings, RefFrames : 4 frames
Codec ID : avc1
Codec ID/Info : Advanced Video Coding
Duration : 2 h 3 min
Bit rate : 900 kb/s
Width : 1 280 pixels
Height : 720 pixels
Display aspect ratio : 16:9
Frame rate mode : Constant
Frame rate : 23.976 (23976/1000) FPS
Color space : YUV
Chroma subsampling : 4:2:0
Bit depth : 8 bits
Scan type : Progressive
Bits/(Pixel*Frame) : 0.041
Stream size : 794 MiB (93%)

Audio
ID : 2
Format : AAC
Format/Info : Advanced Audio Codec
Format profile : LC
Codec ID : mp4a-40-2
Duration : 2 h 3 min
Duration_LastFrame : -22 ms
Bit rate mode : Constant
Bit rate : 63.7 kb/s
Channel(s) : 2 channels
Channel(s)_Original : 1 channel
Channel positions : Front: C
Sampling rate : 44.1 kHz
Frame rate : 43.066 FPS (1024 SPF)
Compression mode : Lossy
Stream size : 56.4 MiB (7%)
Default : Yes
Alternate group : 1


 :ss: :ss:





 :sample:



 :download: :download:








Share this topic on FacebookShare this topic on GoogleShare this topic on MySpaceShare this topic on TwitterShare this topic on Yahoo

« Last Edit: January 09, 2018, 12:20:31 PM by UnikAaYush »



Tags: aayush 
 

Related Topics




Back to top