+ ShareSpark.net »  :::: Dubbed Zone (Dubbed English in Hindi) » English Movies Dubbed in Hindi
|- 300 (2006) (Original Motion Picture) NetFlix [Hindi + English] ORG Hindi 256kb {1.3GB} by JacKRoSe

Gif Cards 25% Off

300 (2006) (Original Motion Picture) NetFlix [Hindi + English] ORG Hindi 256kb {1.3GB} by JacKRoSe

0 Members and 1 Guest are viewing this topic.

January 11, 2018, 01:17:04 AM
  • Conqueror
  • Elite Forces
  • *****
  • Topic Author
  • Thank You: 489
  • Reputation: 178
  • Activity:
    39.6%
  • Country: in
  • Posts: 1110
  • Topics: 490
  • Join Date: Oct 2015
  • Hit ThanX Button 🔳 N Repute Button 🔳


300 (2006) (Original Motion Picture) NetFlix [Hindi + English] ORG Hindi 256kb {1.3GB} by JacKRoSe



Quote

General

Complete name                            : F:\MOVIES\300 (2006) (Original Motion Picture).mkv
Format                                   : Matroska
Format version                           : Version 4 / Version 2
File size                                : 1.27 GiB
Duration                                 : 1 h 56 min
Overall bit rate                         : 1 565 kb/s
Movie name                               : 300 (2006)
Encoded date                             : UTC 2017-12-30 23:27:38
Writing application                      : mkvmerge v17.0.0 ('Be Ur Friend') 64-bit
Writing library                          : libebml v1.3.5 + libmatroska v1.4.8
ACCOUNT                                  : [email protected]
OWNER                                    : Saneey50
PURCHASED BY                             : Saneey50
PURCHASED DATE                           : 2017-12-29 19:42:52




Video

ID                                       : 1
Format                                   : AVC
Format/Info                              : Advanced Video Codec
Format profile                           : [email protected]
Format settings                          : CABAC / 4 Ref Frames
Format settings, CABAC                   : Yes
Format settings, RefFrames               : 4 frames
Codec ID                                 : V_MPEG4/ISO/AVC
Duration                                 : 1 h 56 min
Bit rate                                 : 1 181 kb/s
Width                                    : 1 280 pixels
Height                                   : 528 pixels
Display aspect ratio                     : 2.40:1
Frame rate mode                          : Constant
Frame rate                               : 23.976 (24000/1001) FPS
Color space                              : YUV
Chroma subsampling                       : 4:2:0
Bit depth                                : 8 bits
Scan type                                : Progressive
Bits/(Pixel*Frame)                       : 0.073
Stream size                              : 985 MiB (75%)
Title                                    : NetFlix
Writing library                          : x264 core 112
Encoding settings                        : cabac=1 / ref=2 / deblock=1:0:0 / analyse=0x1:0x111 / me=hex / subme=6 / psy=1 / psy_rd=1.00:0.00 / mixed_ref=0 / me_range=16 / chroma_me=1 / trellis=0 / 8x8dct=0 / cqm=0 / deadzone=21,11 / fast_pskip=1 / chroma_qp_offset=-2 / threads=3 / sliced_threads=0 / nr=0 / decimate=1 / interlaced=0 / constrained_intra=0 / bframes=2 / b_pyramid=2 / b_adapt=1 / b_bias=0 / direct=1 / weightb=0 / open_gop=0 / weightp=2 / keyint=240 / keyint_min=23 / scenecut=40 / intra_refresh=0 / rc_lookahead=40 / rc=crf / mbtree=1 / crf=25.5 / qcomp=0.60 / qpmin=3 / qpmax=51 / qpstep=4 / ip_ratio=1.40 / aq=1:1.00
Language                                 : English
Default                                  : Yes
Forced                                   : No
Color range                              : Limited
Color primaries                          : BT.709
Transfer characteristics                 : BT.709
Matrix coefficients                      : BT.709




Audio #1

ID                                       : 2
Format                                   : AC-3
Format/Info                              : Audio Coding 3
Codec ID                                 : A_AC3
Duration                                 : 1 h 56 min
Bit rate mode                            : Constant
Bit rate                                 : 256 kb/s
Channel(s)                               : 6 channels
Channel positions                        : Front: L C R, Side: L R, LFE
Sampling rate                            : 48.0 kHz
Frame rate                               : 31.250 FPS (1536 SPF)
Bit depth                                : 16 bits
Compression mode                         : Lossy
Stream size                              : 214 MiB (16%)
Title                                    : NetFlix
Language                                 : English
Service kind                             : Complete Main
Default                                  : No
Forced                                   : No




Audio #2

ID                                       : 3
Format                                   : AAC
Format/Info                              : Advanced Audio Codec
Format profile                           : LC
Codec ID                                 : A_AAC-2
Duration                                 : 1 h 56 min
Bit rate                                 : 125 kb/s
Channel(s)                               : 2 channels
Channel positions                        : Front: L R
Sampling rate                            : 48.0 kHz
Frame rate                               : 46.875 FPS (1024 SPF)
Compression mode                         : Lossy
Stream size                              : 105 MiB (8%)
Title                                    : NetFlix
Language                                 : Hindi
Default                                  : Yes
Forced                                   : No






Download links


OR

OR




All Credits : saneey50
OrG UploadeR Of Torrent


Share this topic on FacebookShare this topic on GoogleShare this topic on MySpaceShare this topic on TwitterShare this topic on Yahoo

« Last Edit: January 11, 2018, 01:44:15 AM by JackRoSe »


Hit Thnx Button 🔳 N + Repute Button 🔳 Always Appreciate UploadeR 🤗 GiVe Respect GeT Respect :yu:

Tags:
 

Related Topics

  Subject / Started by Replies Last post
0 Replies
770 Views
Last post November 18, 2014, 11:09:43 AM
by -Ð@Rk.ÐèVi£-
0 Replies
485 Views
Last post January 18, 2016, 04:22:38 PM
by ♥ Mann ♥
2 Replies
802 Views
Last post December 24, 2016, 05:36:22 PM
by rdx_tanvir
2 Replies
1256 Views
Last post April 30, 2017, 12:44:31 AM
by jasmin_306
1 Replies
410 Views
Last post January 11, 2018, 09:45:40 AM
by yogesh.sagpariya.5



Back to top