+ ShareSpark.net »  :::: Hollywood Zone » Hollywood Movies (Original Rips)
|- Thank You for Your Service 2017 720p WEB-DL x264 AAC - Hon3y


HDFC 10% Off

Thank You for Your Service 2017 720p WEB-DL x264 AAC - Hon3y

0 Members and 1 Guest are viewing this topic.

January 11, 2018, 07:25:45 AM
  • Addic7ed
  • Royal Member
  • ****
  • Topic Author
  • Thank You: 512
  • Reputation: 185
  • Activity:
    0%
  • Country: np
  • Posts: 1076
  • Topics: 702
  • Join Date: May 2017
  • #Me


 :plot:

Source: FGT
Format                      : Matroska
Format version              : Version 4 / Version 2
File size                   : 1.01 GiB
Duration                    : 1 h 48 min
Overall bit rate            : 1 330 kb/s
Movie name                  : Thank You for Your Service 2017 - Hon3y


Video
ID                          : 1
Format                      : AVC
Format/Info                 : Advanced Video Codec
Format profile              : [email protected]
Format settings, CABAC      : Yes
Format settings, RefFrames  : 8 frames
Codec ID                    : V_MPEG4/ISO/AVC
Duration                    : 1 h 48 min
Bit rate                    : 1 200 kb/s
Width                       : 1 280 pixels
Height                      : 532 pixels
Display aspect ratio        : 2.40:1
Frame rate mode             : Constant
Frame rate                  : 23.976 (24000/1001) FPS


Audio
ID                          : 2
Format                      : AAC
Format/Info                 : Advanced Audio Codec
Format profile              : LC
Codec ID                    : A_AAC
Duration                    : 1 h 48 min
Bit rate                    : 128 kb/s
Channel(s)                  : 2 channels
Channel positions           : Front: L R
Sampling rate               : 48.0 kHz
Frame rate                  : 46.875 FPS (1024 SPF)
Compression mode            : Lossy
Delay relative to video     : -21 ms
Stream size                 : 99.8 MiB (10%)
Title                       : Stereo
Language                    : English
Default                     : Yes
Forced                      : No

Text
ID                          : 3
Format                      : UTF-8
Codec ID                    : S_TEXT/UTF8
Codec ID/Info               : UTF-8 Plain Text
Duration                    : 1 h 40 min
Bit rate                    : 48 b/s
Count of elements           : 1364
Stream size                 : 36.0 KiB (0%)
Language                    : English
Default                     : Yes
Forced                      : No


 :ss: :ss:





 :download: :download:







Share this topic on FacebookShare this topic on GoogleShare this topic on MySpaceShare this topic on TwitterShare this topic on Yahoo



Thanks given by:


Tags: new 
 

Related Topics





Back to top