+ ShareSpark.net »  :::: Hollywood Zone » Hollywood Movies (Original Rips)
|- The.Pirates.of.Somalia.2017.720p.BluRay.H264.AAC-RARBG

Gif Cards 25% Off

The.Pirates.of.Somalia.2017.720p.BluRay.H264.AAC-RARBG

0 Members and 1 Guest are viewing this topic.

January 11, 2018, 07:37:18 AM
  • Addic7ed
  • Royal Member
  • ****
  • Topic Author
  • Thank You: 499
  • Reputation: 183
  • Activity:
    72.8%
  • Country: np
  • Posts: 1077
  • Topics: 702
  • Join Date: May 2017
  • #Me


 :plot:

Video
ID                                       : 1
Format                                   : AVC
Format/Info                              : Advanced Video Codec
Format profile                           : [email protected]
Format settings                          : CABAC / 4 Ref Frames
Format settings, CABAC                   : Yes
Format settings, RefFrames               : 4 frames
Codec ID                                 : avc1
Codec ID/Info                            : Advanced Video Coding
Duration                                 : 1 h 57 min
Bit rate                                 : 1 500 kb/s
Width                                    : 1 280 pixels
Height                                   : 534 pixels
Display aspect ratio                     : 2.40:1
Original display aspect ratio            : 2.40:1
Frame rate mode                          : Constant
Frame rate                               : 23.976 (23976/1000) FPS
Color space                              : YUV
Chroma subsampling                       : 4:2:0
Bit depth                                : 8 bits
Scan type                                : Progressive
Bits/(Pixel*Frame)                       : 0.092
Stream size                              : 1.23 GiB (87%)
Writing library                          : x264 core 152 r2851M ba24899


Audio
ID                                       : 2
Format                                   : AAC
Format/Info                              : Advanced Audio Codec
Format profile                           : LC
Codec ID                                 : mp4a-40-2
Duration                                 : 1 h 57 min
Bit rate mode                            : Constant
Bit rate                                 : 224 kb/s
Channel(s)                               : 2 channels
Channel(s)_Original                      : 6 channels
Channel positions                        : Front: L C R, Side: L R, LFE
Sampling rate                            : 48.0 kHz
Frame rate                               : 46.875 FPS (1024 SPF)
Compression mode                         : Lossy
Stream size                              : 189 MiB (13%)
Language                                 : English
Default                                  : Yes
Alternate group                          : 1


 :ss: :ss:





 :download: :download:








Share this topic on FacebookShare this topic on GoogleShare this topic on MySpaceShare this topic on TwitterShare this topic on Yahoo

« Last Edit: January 11, 2018, 07:39:34 AM by UnikAaYush »


Thanks given by:


Tags: new 
 

Related Topics

  Subject / Started by Replies Last post
0 Replies
442 Views
Last post September 11, 2017, 08:59:04 PM
by Nightfire
0 Replies
291 Views
Last post December 08, 2017, 06:31:48 PM
by PSYCHO
0 Replies
596 Views
Last post January 11, 2018, 03:04:07 PM
by PSYCHO
0 Replies
295 Views
Last post January 11, 2018, 03:07:07 PM
by PSYCHO
0 Replies
348 Views
Last post February 02, 2018, 10:48:47 PM
by DjiSamSoe



Back to top