+ ShareSpark.net »  :::: Hollywood Zone » Hollywood Movies (Pre Releases)
|- Jumanji: Welcome to the Jungle (2017) 720p HDTS 850MB - MkvCage


Electroncs Sale

Jumanji: Welcome to the Jungle (2017) 720p HDTS 850MB - MkvCage

0 Members and 1 Guest are viewing this topic.

January 12, 2018, 10:08:24 AM
  • Addic7ed
  • Royal Member
  • ****
  • Topic Author
  • Thank You: 512
  • Reputation: 185
  • Activity:
    0%
  • Country: np
  • Posts: 1076
  • Topics: 702
  • Join Date: May 2017
  • #Me


 :plot:

Format                      : Matroska
Format version              : Version 4 / Version 2
File size                   : 853 MiB
Duration                    : 1 h 50 min
Overall bit rate            : 1 083 kb/s
Movie name                  : Jumanji.Welcome.To.The.Jungle.720p.HDTS.850MB.MkvCage
Encoded date                : UTC 2018-01-12 03:36:20
Writing application         : mkvmerge v16.0.0 ('Protest') 64-bit
Writing library             : libebml v1.3.5 + libmatroska v1.4.8
 
Video
ID                          : 3
Format                      : AVC
Format/Info                 : Advanced Video Codec
Format profile              : [email protected]
Format settings, CABAC      : Yes
Format settings, RefFrames  : 8 frames
Codec ID                    : V_MPEG4/ISO/AVC
Duration                    : 1 h 50 min
Bit rate                    : 1 017 kb/s
Width                       : 1 072 pixels
Height                      : 448 pixels
Display aspect ratio        : 2.40:1
Frame rate mode             : Constant
Frame rate                  : 30.000 FPS
Color space                 : YUV
Chroma subsampling          : 4:2:0
Bit depth                   : 8 bits
Scan type                   : Progressive
Bits/(Pixel*Frame)          : 0.071
Stream size                 : 801 MiB (94%)
Writing library             : x264 core 148 r2708 86b7198

Default                     : Yes
Forced                      : No
Color range                 : Limited
Color primaries             : BT.709
Transfer characteristics    : BT.709
Matrix coefficients         : BT.709
 
Audio
ID                          : 2
Format                      : AAC
Format/Info                 : Advanced Audio Codec
Format profile              : HE-AAC / LC
Codec ID                    : A_AAC
Duration                    : 1 h 50 min
Bit rate                    : 64.0 kb/s
Channel(s)                  : 2 channels
Channel positions           : Front: L R
Sampling rate               : 44.1 kHz / 22.05 kHz
Frame rate                  : 21.533 FPS (1024 SPF)
Compression mode            : Lossy
Delay relative to video     : 33 ms
Stream size                 : 50.4 MiB (6%)
Language                    : English
Default                     : Yes
Forced                      : No
 
Text
ID                          : 1
Format                      : UTF-8
Codec ID                    : S_TEXT/UTF8
Codec ID/Info               : UTF-8 Plain Text
Duration                    : 1 h 47 min
Bit rate                    : 64 b/s
Count of elements           : 1400
Stream size                 : 50.5 KiB (0%)
Language                    : English
Default                     : Yes
Forced                      : No



 :ss: :ss:



 :download: :download:






Share this topic on FacebookShare this topic on GoogleShare this topic on MySpaceShare this topic on TwitterShare this topic on Yahoo




Tags: new 
 

Related Topics





Back to top