+ ShareSpark.net »  :::: Dubbed Zone (Dubbed English in Hindi) » English Movies Dubbed in Hindi
|- Chaos 2005 720p Esub BluRay Dual Audio English Hindi GOPISAHI


New Promotions of ShareSpark Member's (January 2018) New
Tag users in topic | Receive notifications when you are tagged

Chaos 2005 720p Esub BluRay Dual Audio English Hindi GOPISAHI

0 Members and 1 Guest are viewing this topic.

January 12, 2018, 01:45:13 PM
  • Addic7ed
  • Hot Member
  • ****
  • Topic Author
  • Thank You: 284
  • Reputation: 67
  • Activity:
    59.2%
  • Country: in
  • Posts: 568
  • Topics: 529
  • Join Date: Oct 2013
  • ShareSpark Member
Quote
Encoded By GOSA /quote]


Format                         : Matroska
Format version                 : Version 4 / Version 2
File size                      : 517 MiB
Duration                       : 1 h 46 min
Overall bit rate               : 679 kb/s
Movie name                     : Chaos 2005 GOPISAHI

Video
Format                         : AVC
Codec ID                       : V_MPEG4/ISO/AVC
Duration                       : 1 h 46 min
Bit rate                       : 500 kb/s
Width                          : 1 280 pixels
Height                         : 544 pixels
Display aspect ratio           : 2.35:1
Frame rate mode                : Constant
Frame rate                     : 23.976 (24000/1001) FPS
Stream size                    : 380 MiB (74%)
Writing library                : x264 core 148 r2708 86b7198

Audio #1
Format                         : AAC
Duration                       : 1 h 46 min
Bit rate                       : 88.8 kb/s
Channel(s)                     : 6 channels
Channel positions              : Front: L C R, Side: L R, LFE
Sampling rate                  : 44.1 kHz
Frame rate                     : 43.066 FPS (1024 SPF)
Compression mode               : Lossy
Stream size                    : 67.5 MiB (13%)
Language                       : Hindi

Audio #2
Format                         : AAC
Duration                       : 1 h 46 min
Bit rate                       : 87.7 kb/s
Channel(s)                     : 6 channels
Channel positions              : Front: L C R, Side: L R, LFE
Sampling rate                  : 44.1 kHz
Frame rate                     : 43.066 FPS (1024 SPF)
Compression mode               : Lossy
Stream size                    : 66.7 MiB (13%)
Language                       : English

Text
Language                       : English





Share this topic on FacebookShare this topic on GoogleShare this topic on MySpaceShare this topic on TwitterShare this topic on Yahoo



Thanks given by:


January 12, 2018, 02:41:10 PM
Reply #1
  • Team SSX
  • Hero Member
  • ***
  • Thank You: 65
  • Reputation: -2
  • Activity:
    93.2%
  • Country: us
  • Posts: 389
  • Topics: 254
  • Join Date: May 2017
  • #Me

Tags:
 

Related Topics

  Subject / Started by Replies Last post
0 Replies
271 Views
Last post August 04, 2017, 01:30:21 PM
by jattsahi2
0 Replies
305 Views
Last post August 04, 2017, 01:30:55 PM
by jattsahi2
0 Replies
288 Views
Last post August 11, 2017, 10:15:02 PM
by Abhisona
0 Replies
366 Views
Last post August 17, 2017, 07:06:53 PM
by Abhisona
0 Replies
214 Views
Last post August 31, 2017, 01:36:46 PM
by jattsahi2




Back to top