+ ShareSpark.net »  :::: Dubbed Zone (Dubbed English in Hindi) » English Movies Dubbed in Hindi
|- The Rebel (2007) x264 360p Hindi Dubbed - Voot Rip

Add 1000 Get 100 Back

The Rebel (2007) x264 360p Hindi Dubbed - Voot Rip

0 Members and 1 Guest are viewing this topic.

January 12, 2018, 06:12:33 PM
  • Newbie
  • **
  • Topic Author
  • Thank You: 0
  • Reputation: 0
  • Activity:
    0%
  • Country: in
  • Posts: 4
  • Topics: 1
  • Join Date: Jun 2015
  • ShareSpark Member


General
Complete name                            : The Rebel 2007 Hindi Dubbed.mp4
Format                                        : MPEG-4
Format profile                              : Base Media
Codec ID                                     : isom (mp41/avc1)
File size                                      : 434 MiB
Duration                                     : 1 h 39 min
Overall bit rate                            : 608 kb/s
Encoded date                             : UTC 2018-01-12 11:44:25
Tagged date                              : UTC 2018-01-12 11:44:25
Writing application                      : vlc 2.2.6 stream output

Video
ID                                            : 2
Format                                     : AVC
Format/Info                              : Advanced Video Codec
Format profile                           : [email protected]
Format settings                         : CABAC / 4 Ref Frames
Format settings, CABAC             : Yes
Format settings, RefFrames       : 4 frames
Codec ID                                 : avc1
Codec ID/Info                            : Advanced Video Coding
Duration                                 : 1 h 39 min
Source duration                          : 28 min 8 s
Bit rate                                 : 476 kb/s
Width                                    : 640 pixels
Height                                   : 386 pixels
Original height                          : 360 pixels
Display aspect ratio                     : 5:3
Original display aspect ratio            : 16:9
Frame rate mode                          : Constant
Frame rate                               : 25.000 FPS
Color space                              : YUV
Chroma subsampling                       : 4:2:0
Bit depth                                : 8 bits
Scan type                                : Progressive
Bits/(Pixel*Frame)                       : 0.077
Stream size                              : 340 MiB (78%)
Source stream size                       : 340 MiB (78%)
Language                                 : English
Encoded date                             : UTC 2018-01-12 11:44:25
Tagged date                              : UTC 2018-01-12 11:44:25

Audio
ID                                       : 1
Format                                   : MPEG Audio
Format version                           : Version 1
Format profile                           : Layer 2
Codec ID                                 : mp4a-6B
Duration                                 : 1 h 39 min
Bit rate mode                            : Constant
Bit rate                                     : 128 kb/s
Channel(s)                               : 2 channels
Sampling rate                           : 44.1 kHz
Compression mode                    : Lossy
Stream size                              : 91.1 MiB (21%)
Language                                 : English
Encoded date                             : UTC 2018-01-12 11:44:25
Tagged date                              : UTC 2018-01-12 11:44:25

Google Drive Link :

Share this topic on FacebookShare this topic on GoogleShare this topic on MySpaceShare this topic on TwitterShare this topic on Yahoo

« Last Edit: January 12, 2018, 06:32:35 PM by Dats.Me »



Tags:
 

Related Topics




Back to top