+ ShareSpark.net »  :::: Hollywood Zone » Hollywood Movies (Original Rips)
|- The 13th Friday 2017 720p WEB-DL AAC 2.0 H264 - [FGT] 2.80GB



The 13th Friday 2017 720p WEB-DL AAC 2.0 H264 - [FGT] 2.80GB

0 Members and 1 Guest are viewing this topic.

January 13, 2018, 02:20:41 PM
  • Elite Moderator
  • Legend Member
  • ****
  • Topic Author
  • Thank You: 1991
  • Reputation: 286
  • Activity:
    100%
  • Country: in
  • Posts: 3702
  • Topics: 2844
  • Join Date: Sep 2016
  • (: EnJOy D LiFe :)

The 13th Friday 2017 720p WEB-DL AAC 2.0 H264 FGT




 :info:

IMDb :


Video
ID                                       : 1
Format                                   : AVC
Format/Info                              : Advanced Video Codec
Format profile                           : [email protected]
Format settings                          : 2 Ref Frames
Format settings, CABAC                   : No
Format settings, ReFrames                : 2 frames
Codec ID                                 : V_MPEG4/ISO/AVC
Duration                                 : 1 h 35 min
Bit rate                                 : 4 056 kb/s
Width                                    : 1 280 pixels
Height                                   : 552 pixels
Display aspect ratio                     : 2.35:1
Frame rate mode                          : Constant
Frame rate                               : 23.976 FPS
Color space                              : YUV
Chroma subsampling                       : 4:2:0
Bit depth                                : 8 bits
Scan type                                : Progressive
Bits/(Pixel*Frame)                       : 0.239
Stream size                              : 2.71 GiB (97%)
Title                                    : The.13th.Friday.2017.720p.WEB-DL.AAC2.0.H264-FGT
Language                                 : English
Default                                  : Yes
Forced                                   : No
Color range                              : Limited
Color primaries                          : BT.709
Transfer characteristics                 : BT.709
Matrix coefficients                      : BT.709

Audio
ID                                       : 2
Format                                   : AAC
Format/Info                              : Advanced Audio Codec
Format profile                           : LC
Codec ID                                 : A_AAC-2
Duration                                 : 1 h 35 min
Bit rate                                 : 126 kb/s
Channel(s)                               : 2 channels
Channel positions                        : Front: L R
Sampling rate                            : 48.0 kHz
Frame rate                               : 46.875 FPS (1024 SPF)
Compression mode                         : Lossy
Stream size                              : 86.2 MiB (3%)
Title                                    : The.13th.Friday.2017.720p.WEB-DL.AAC2.0.H264-FGT
Language                                 : English
Default                                  : Yes
Forced                                   : No


 :ss:












 :download:













Share this topic on FacebookShare this topic on GoogleShare this topic on MySpaceShare this topic on TwitterShare this topic on Yahoo



* BUSY *


Tags:
 

Related Topics





Back to top