+ ShareSpark.net »  :::: Dubbed Zone (Dubbed English in Hindi) » English Movies Dubbed in Hindi
|- Goodbye Christopher Robin 2017 720p Esub BlyRay 5.1 Dual Audio English Hindi GOPISAHI [GD Link]


Mastercard 10% Off

Goodbye Christopher Robin 2017 720p Esub BlyRay 5.1 Dual Audio English Hindi GOPISAHI [GD Link]

0 Members and 1 Guest are viewing this topic.

January 14, 2018, 09:07:05 AM
  • Addic7ed
  • Royal Member
  • ****
  • Topic Author
  • Thank You: 512
  • Reputation: 185
  • Activity:
    0.6%
  • Country: np
  • Posts: 1076
  • Topics: 702
  • Join Date: May 2017
  • #Me


 :plot:

Format                         : Matroska
Format version                 : Version 4 / Version 2
File size                      : 511 MiB
Duration                       : 1 h 47 min
Overall bit rate               : 668 kb/s
Movie name                     : Goodbye Christopher Robin 2017 GOPISAHI

Video
Format                         : AVC
Codec ID                       : V_MPEG4/ISO/AVC
Duration                       : 1 h 47 min
Bit rate                       : 500 kb/s
Width                          : 1 280 pixels
Height                         : 682 pixels
Display aspect ratio           : 1.85:1
Frame rate mode                : Constant
Frame rate                     : 23.976 (24000/1001) FPS
Stream size                    : 382 MiB (75%)
Writing library                : x264

Audio #1
Format                         : AAC
Duration                       : 1 h 47 min
Bit rate                       : 78.8 kb/s
Channel(s)                     : 6 channels
Channel positions              : Front: L C R, Side: L R, LFE
Sampling rate                  : 44.1 kHz
Frame rate                     : 43.066 FPS (1024 SPF)
Compression mode               : Lossy
Stream size                    : 60.3 MiB (12%)
Language                       : English

Audio #2
Format                         : AAC
Duration                       : 1 h 47 min
Bit rate                       : 86.8 kb/s
Channel(s)                     : 6 channels
Channel positions              : Front: L C R, Side: L R, LFE
Sampling rate                  : 44.1 kHz
Frame rate                     : 43.066 FPS (1024 SPF)
Compression mode               : Lossy
Stream size                    : 66.4 MiB (13%)
Title                          : GOPISAHI
Language                       : Hindi

Text
Language                       : English


 :ss: :ss:


 :download: :download:










Share this topic on FacebookShare this topic on GoogleShare this topic on MySpaceShare this topic on TwitterShare this topic on Yahoo

« Last Edit: January 14, 2018, 05:29:08 PM by UnikAaYush »


Thanks given by:


January 14, 2018, 01:16:27 PM
Reply #1
  • Addic7ed
  • Special Member
  • ****
  • Thank You: 401
  • Reputation: 90
  • Activity:
    0.2%
  • Country: in
  • Posts: 815
  • Topics: 770
  • Join Date: Oct 2013
  • ShareSpark Member

January 14, 2018, 01:18:29 PM
Reply #2
  • Addic7ed
  • Royal Member
  • ****
  • Topic Author
  • Thank You: 512
  • Reputation: 185
  • Activity:
    0.6%
  • Country: np
  • Posts: 1076
  • Topics: 702
  • Join Date: May 2017
  • #Me

Tags: new 
 

Related Topics





Back to top