+ ShareSpark.net »  :::: Bollywood Zone » Bollywood Movies (Original Rips)
|- Haseena Parkar (2017) Hindi 720p WebHD x264 ACC 2.0...Hon3y [With Archive Link]

Add 1000 Get 100 Back

Haseena Parkar (2017) Hindi 720p WebHD x264 ACC 2.0...Hon3y [With Archive Link]

0 Members and 1 Guest are viewing this topic.

January 14, 2018, 10:44:16 AM
  • Global Moderator
  • Legend Member
  • *****
  • Topic Author
  • Thank You: 7242
  • Reputation: 1584
  • Activity:
    100%
  • Country: in
  • Posts: 4419
  • Topics: 3683
  • Join Date: Jan 2014
  • ıllıllı ѕмoĸιng ιѕ good ғor нealтн ıllıllı :)
Haseena Parkar (2017) Hindi 720p WebHD x264 ACC 2.0...Hon3y



:info:

Quote
General
Format                                   : Matroska
Format version                           : Version 4 / Version 2
File size                                : 1 022 MiB
Duration                                 : 1 h 57 min
Overall bit rate                         : 1 215 kb/s
Movie name                               : Haseena Parkar---Pasha@Hon3yHD

Video
Format                                   : AVC
Format/Info                              : Advanced Video Codec
Format profile                           : [email protected]
Format settings, CABAC                   : Yes
Format settings, RefFrames               : 12 frames
Codec ID                                 : V_MPEG4/ISO/AVC
Duration                                 : 1 h 57 min
Bit rate                                 : 1 021 kb/s
Width                                    : 1 280 pixels
Height                                   : 544 pixels
Display aspect ratio                     : 2.35:1
Frame rate mode                          : Constant
Frame rate                               : 24.000 FPS
Color space                              : YUV
Chroma subsampling                       : 4:2:0
Bit depth                                : 8 bits
Scan type                                : Progressive
Bits/(Pixel*Frame)                       : 0.061
Stream size                              : 859 MiB (84%)
Title                                    : Haseena Parkar---Pasha@Hon3yHD

Audio 1
Format                                   : AAC
Format/Info                              : Advanced Audio Codec
Format profile                           : LC
Codec ID                                 : A_AAC
Duration                                 : 1 h 57 min
Bit rate                                 : 192 kb/s
Channel(s)                               : 2 channels
Channel positions                        : Front: L R
Sampling rate                            : 48.0 kHz
Frame rate                               : 46.875 FPS (1024 SPF)
Compression mode                         : Lossy
Delay relative to video                  : 9 ms
Stream size                              : 162 MiB (16%)
Title                                    : Hindi---Pasha@Hon3yHD
Language                                 : Hindi
Default                                  : Yes
Forced                                   : No

:ss:








:download:

Quote














File Leeched & Uploaded From




Don't walk as you are king, walk as you don't care who the king is....!!
Never argue with an idiot. They drag you down to their level and then beat you with experience?

Share this topic on FacebookShare this topic on GoogleShare this topic on MySpaceShare this topic on TwitterShare this topic on Yahoo




Don't walk as you are king, walk as you don't care who the king is....!!

Thanks given by:


January 14, 2018, 11:07:09 AM
Reply #1
  • Elite Forces
  • ****
  • Thank You: 1174
  • Reputation: 456
  • Activity:
    100%
  • Country: np
  • Posts: 1293
  • Topics: 800
  • Join Date: Jul 2016
  • ShareSpark Member

Tags:
 

Related Topics




Back to top