+ ShareSpark.net »  :::: Bollywood Zone » Bollywood Movies (Original Rips) » High Resolution Movies
|- Haseena Parkar 2017 1080p WEB-HD x264-TEAM Moviezworldz

DTH Recharges 20% Back

Haseena Parkar 2017 1080p WEB-HD x264-TEAM Moviezworldz

0 Members and 1 Guest are viewing this topic.

January 14, 2018, 03:38:27 PM
  • ★★★𝖎𝖓𝖘𝖆𝖓𝖊★★★
  • Team SSX
  • Hero Member
  • ***
  • Topic Author
  • Thank You: 35
  • Reputation: 154
  • Activity:
    9.6%
  • Country: nl
  • Posts: 359
  • Topics: 131
  • Join Date: Dec 2017
  • ★★★The An0N0yMouS OnE★★★
Haseena Parkar 2017 1080p WEB-HD x264



General
Format : Matroska
Format version : Version 4 / Version 2
File size : 1.49 GiB
Duration : 1 h 57 min
Overall bit rate : 1 815 kb/s

Video
ID : 1
Format : AVC
Format/Info : Advanced Video Codec
Format profile : [email protected]
Format settings : CABAC / 4 Ref Frames
Format settings, CABAC : Yes
Format settings, ReFrames : 4 frames
Codec ID : V_MPEG4/ISO/AVC
Duration : 1 h 57 min
Bit rate : 1 700 kb/s
Width : 1 920 pixels
Height : 816 pixels
Display aspect ratio : 2.35:1
Frame rate mode : Constant
Frame rate : 24.926 FPS
Color space : YUV
Chroma subsampling : 4:2:0
Bit depth : 8 bits
Scan type : Progressive
Bits/(Pixel*Frame) : 0.044
Stream size : 1.38 GiB (93%)
Writing library : x264 core 148 r2708 86b7198
Default : Yes
Forced : No

Audio
ID : 2
Format : AAC
Format/Info : Advanced Audio Codec
Format profile : LC
Codec ID : A_AAC-2
Duration : 1 h 57 min
Bit rate : 128 kb/s
Channel(s) : 2 channels
Channel positions : Front: L R
Sampling rate : 44.1 kHz
Frame rate : 43.066 FPS (1024 SPF)
Compression mode : Lossy
Stream size : 107 MiB (7%)
Language : Hindi
Default : Yes
Forced : No












Code: [Select]
https://openload.co/f/GWUffrO5Y7c/
http://www.indishare.me/46pp8htgg8s3
http://uptobox.com/eru990z28vjp
https://bdupload.info/nefmooh2uql2
http://filecloud.io/z8kamn4tf

Share this topic on FacebookShare this topic on GoogleShare this topic on MySpaceShare this topic on TwitterShare this topic on Yahoo

« Last Edit: January 14, 2018, 04:55:14 PM by ★Complex★ »



Tags:
 

Related Topics

  Subject / Started by Replies Last post
0 Replies
736 Views
Last post September 23, 2017, 08:15:17 AM
by ~~Ank!t~~
1 Replies
1360 Views
Last post September 24, 2017, 06:02:05 PM
by vjkumar24
1 Replies
562 Views
Last post January 12, 2018, 10:25:24 PM
by Anand00
0 Replies
489 Views
Last post January 12, 2018, 07:27:22 PM
by PSYCHO
1 Replies
483 Views
Last post January 13, 2018, 05:41:39 PM
by JokerRonaldo



Back to top