+ ShareSpark.net »  :::: Dubbed Zone (Dubbed English in Hindi) » English Movies Dubbed in Hindi » High Resolution Movies
|- Transformers-Dark of the Moon (2011)+Extras 1080p BluRay x264 Dual Audio [English 5.1+Hindi 5.1]TBI


10% SBI and 10% Discount

Transformers-Dark of the Moon (2011)+Extras 1080p BluRay x264 Dual Audio [English 5.1+Hindi 5.1]TBI

0 Members and 1 Guest are viewing this topic.

March 11, 2015, 02:27:45 PM
  • Admin
  • Legend Member
  • ****
  • Topic Author
  • Thank You: 3424
  • Reputation: 1214
  • Activity:
    0%
  • Posts: 5928
  • Topics: 3331
  • Join Date: Apr 2012
  • No Tears For The Dead
  • Expertises:
  • All Rounder In Each Field
Transformers - Dark of the Moon (2011) + Extras 1080p BluRay x264 Dual Audio [English 5.1 + Hindi 5.1] - TBI






Release Info:
Quote:
Release Name: Transformers - Dark of the Moon (2011)
Size: 3.12 GiB
Video: AVC | 1920 x 800 | 2000 Kbps | 23.976 FPS | 2.40:1
Audio 1: English | 448 Kbps | 6ch | AC3
Audio 2: Hindi | 448 Kbps | 6ch | AC3
Runtime: 02h 34mn 23sec
Subtitles: No
Source: Blu-ray HDCLUB



IMDB Info:
Quote:
Name: Transformers - Dark of the Moon (2011)
Genre: Action | Adventure | Sci-Fi
IMDB:

IMDB Rating: 6.3/10 from 283,666 users
Director: Michael Bay
Writers: Ehren Kruger
Cast: Shia LaBeouf, Rosie Huntington-Whiteley, Josh Duhamel
Plot: The Autobots learn of a Cybertronian spacecraft hidden on the moon, and race against
the Decepticons to reach it and to learn its secrets.




Extras:
Quote:
Exploring Dark of the Moon (01:50:47)
Uncharted Territory (26:15)
Visual Effects (18:36)
Previsualizations (17:05)
The Sound of Transformers Dark of the Moon (09:17)
3D - A Transforming Visual Art (03:06)
Moscow World Premiere (02:29)
Birdmen Featurette (02:28)
Attack of the Birdmen (02:07)



Extras Info:
Quote:
Size: 1.37 GiB
Video: AVC | 1280 x 720 | 800 Kbps | 23.976 FPS | 16:9
Audio : English | 224 Kbps | 2ch | AC3
Runtime: 03h 12mn 10sec
Subtitles: None
Source: Blu-ray HDCLUB



Code: [Select]
General
Complete name : Transformers - Dark of the Moon (2011).mp4
Format : MPEG-4
Format profile : Base Media
Codec ID : isom
File size : 3.12 GiB
Duration : 2h 34mn
Overall bit rate : 2 896 Kbps

Video
ID : 1
Format : AVC
Format/Info : Advanced Video Codec
Format profile : [email protected]
Format settings, CABAC : Yes
Format settings, ReFrames : 4 frames
Codec ID : avc1
Codec ID/Info : Advanced Video Coding
Duration : 2h 34mn
Bit rate : 2 000 Kbps
Maximum bit rate : 13.6 Mbps
Width : 1 920 pixels
Height : 800 pixels
Display aspect ratio : 2.40:1
Frame rate mode : Constant
Frame rate : 23.976 fps
Color space : YUV
Chroma subsampling : 4:2:0
Bit depth : 8 bits
Scan type : Progressive
Bits/(Pixel*Frame) : 0.054
Stream size : 2.15 GiB (69%)
Writing library : x264 core 142 r2479kMod dd79a61
Encoding settings : cabac=1 / ref=5 / deblock=1:-2:-2 / analyse=0x3:0x133 / me=umh / subme=9 / psy=1 / fade_compensate=0.00 / psy_rd=1.00:0.00 / mixed_ref=1 / me_range=24 / chroma_me=1 / trellis=1 / 8x8dct=1 / cqm=0 / deadzone=21,11 / fast_pskip=1 / chroma_qp_offset=-2 / threads=12 / lookahead_threads=1 / sliced_threads=0 / nr=0 / decimate=1 / interlaced=0 / bluray_compat=0 / constrained_intra=0 / fgo=0 / bframes=4 / b_pyramid=1 / b_adapt=1 / b_bias=0 / direct=3 / weightb=1 / open_gop=0 / weightp=2 / keyint=250 / keyint_min=25 / scenecut=40 / intra_refresh=0 / rc_lookahead=40 / rc=2pass / mbtree=1 / bitrate=2000 / ratetol=1.0 / qcomp=0.60 / qpmin=0 / qpmax=69 / qpstep=4 / cplxblur=20.0 / qblur=0.5 / vbv_maxrate=62500 / vbv_bufsize=78125 / nal_hrd=none / filler=0 / ip_ratio=1.40 / aq=1:1.00

Audio #1
ID : 2
Format : AC-3
Format/Info : Audio Coding 3
Mode extension : CM (complete main)
Format settings, Endianness : Big
Codec ID : ac-3
Duration : 2h 34mn
Bit rate mode : Constant
Bit rate : 448 Kbps
Channel(s) : 6 channels
Channel positions : Front: L C R, Side: L R, LFE
Sampling rate : 48.0 KHz
Bit depth : 16 bits
Compression mode : Lossy
Stream size : 495 MiB (15%)
Language : English

Audio #2
ID : 3
Format : AC-3
Format/Info : Audio Coding 3
Mode extension : CM (complete main)
Format settings, Endianness : Big
Codec ID : ac-3
Duration : 2h 34mn
Bit rate mode : Constant
Bit rate : 448 Kbps
Channel(s) : 6 channels
Channel positions : Front: L C R, Side: L R, LFE
Sampling rate : 48.0 KHz
Bit depth : 16 bits
Compression mode : Lossy
Stream size : 495 MiB (15%)
Language : Hindi






:sample:






:download:












Extras











Share this topic on FacebookShare this topic on GoogleShare this topic on MySpaceShare this topic on TwitterShare this topic on Yahoo



Thanks given by:


Tags:
 

Related Topics





Back to top