+ ShareSpark.net »  :::: Dubbed Zone (Dubbed English in Hindi) » TV Shows (Dubbed in Hindi)
|- Fear The Walking Dead Season 3 Dual Audio [ Hindi+English ] 1080p Bluray {Hindi Dubbed} All Episode

Add 1000 Get 100 Back

Fear The Walking Dead Season 3 Dual Audio [ Hindi+English ] 1080p Bluray {Hindi Dubbed} All Episode

0 Members and 1 Guest are viewing this topic.

May 03, 2018, 08:14:53 PM
  • Semi Newbie
  • **
  • Topic Author
  • Thank You: 4
  • Reputation: -1
  • Activity:
    2.2%
  • Country: bd
  • Posts: 11
  • Topics: 10
  • Join Date: Mar 2017
  • ShareSpark Member

Fear The Walking Dead Season 3 Dual Audio [ Hindi+English ] 1080p Bluray {Hindi Dubbed} Complete All Episode






:info:


Quote
General

Movie name                               : Fear The Walking Dead Season 3 Dual Audio [ Hindi+English ] 1080p Bluray {Hindi Dubbed} Complete All Episode
Format                                   : Matroska
Format version                           : Version 4 / Version 2
File size                                : 287 MiB
Duration                                 : 47 min 49 s
Overall bit rate                         : 838 kb/s
Encoded date                             : UTC 2018-05-03 06:05:33
Writing application                      : mkvmerge v22.0.0 ('At The End Of The World') 64-bit
Writing library                          : libebml v1.3.5 + libmatroska v1.4.8
Cover                                    : Yes

Video
ID                                       : 1
Format                                   : HEVC
Format/Info                              : High Efficiency Video Coding
Format profile                           : [email protected]@Main
Codec ID                                 : V_MPEGH/ISO/HEVC
Duration                                 : 47 min 49 s
Bit rate                                 : 674 kb/s
Width                                    : 1 920 pixels
Height                                   : 1 080 pixels
Display aspect ratio                     : 16:9
Frame rate mode                          : Constant
Frame rate                               : 23.976 (24000/1001) FPS
Color space                              : YUV
Chroma subsampling                       : 4:2:0
Bit depth                                : 8 bits
Bits/(Pixel*Frame)                       : 0.014
Stream size                              : 231 MiB (81%)

Audio #1
ID                                       : 2
Format                                   : MPEG Audio
Format version                           : Version 1
Format profile                           : Layer 3
Format settings                          : Joint stereo
Codec ID                                 : A_MPEG/L3
Codec ID/Hint                            : MP3
Duration                                 : 47 min 49 s
Bit rate mode                            : Constant
Bit rate                                 : 80.0 kb/s
Channel(s)                               : 2 channels
Sampling rate                            : 44.1 kHz
Frame rate                               : 38.281 FPS (1152 SPF)
Compression mode                         : Lossy
Stream size                              : 27.4 MiB (10%)
Writing library                          : LAME3.98.2
Language                                 : Hindi
Default                                  : No
Forced                                   : Yes

Audio #2
ID                                       : 3
Format                                   : MPEG Audio
Format version                           : Version 1
Format profile                           : Layer 3
Format settings                          : Joint stereo / MS Stereo
Codec ID                                 : A_MPEG/L3
Codec ID/Hint                            : MP3
Duration                                 : 47 min 49 s
Bit rate mode                            : Constant
Bit rate                                 : 80.0 kb/s
Channel(s)                               : 2 channels
Sampling rate                            : 44.1 kHz
Frame rate                               : 38.281 FPS (1152 SPF)
Compression mode                         : Lossy
Stream size                              : 27.4 MiB (10%)
Writing library                          : LAME3.98.2
Language                                 : English
Default                                  : No
Forced                                   : No




:ss:





Note : Episode 7 in English Audio Only With { English Subtitle } !!


:download:


Quote
Episode 1 & 2
Quote




Quote
Episode 3 & 4
Quote




Quote
Episode 5 & 6
Quote




Quote
Episode 7 & 8
Quote




Quote
Episode 9 & 10
Quote




Quote
Episode 11 & 12
Quote




Quote
Episode 13 & 14
Quote




Quote
Episode 15 & 16
Quote






 


:welcome: :welcome: :welcome: :welcome: :welcome:








Share this topic on FacebookShare this topic on GoogleShare this topic on MySpaceShare this topic on TwitterShare this topic on Yahoo

« Last Edit: May 03, 2018, 08:17:35 PM by omd123 »


Thanks given by:


May 03, 2018, 08:52:32 PM
Reply #1
  • Semi Newbie
  • **
  • Thank You: 0
  • Reputation: 0
  • Activity:
    0.8%
  • Country: in
  • Posts: 5
  • Topics: 0
  • Join Date: Aug 2017
  • ShareSpark Member
Pls upload Mr. ROBOT season 03 all episode in hindi and thanks for small size for fear of the walking season 03

May 12, 2018, 08:28:23 PM
Reply #2
  • Semi Newbie
  • **
  • Thank You: 0
  • Reputation: 1
  • Activity:
    6%
  • Country: au
  • Posts: 28
  • Topics: 0
  • Join Date: Mar 2018
  • ShareSpark Member

June 10, 2018, 04:27:25 PM
Reply #3
  • Hero Member
  • ***
  • Thank You: 6
  • Reputation: 9
  • Activity:
    1.4%
  • Posts: 362
  • Topics: 4
  • Join Date: Apr 2012
  • ShareSpark Member

Tags:
 

Related Topics




Back to top