+ ShareSpark.net »  :::: Bollywood Zone » Regional Movies » Regional Movies in Hindi
|- Badmaash 2018 x264 720p HD 5.1 Hindi

Gif Cards 25% Off

Badmaash 2018 x264 720p HD 5.1 Hindi

0 Members and 1 Guest are viewing this topic.

June 13, 2018, 01:01:04 PM
  • Hot Member
  • ***
  • Topic Author
  • Thank You: 501
  • Reputation: 224
  • Activity:
    86.6%
  • Country: pk
  • Posts: 540
  • Topics: 212
  • Join Date: Mar 2015
  • ShareSpark Member
Badmaash 2018 x264 720p HD 5.1 Hindi Shahzaib






INFORMATION


Format : Matroska
Format version : Version 4 / Version 2
File size : 487 MiB
Duration : 1 h 38 min
Overall bit rate : 689 kb/s

Video

Format : AVC
Codec ID : V_MPEG4/ISO/AVC
Duration : 1 h 38 min
Bit rate : 600 kb/s
Width : 1 280 pixels
Height : 548 pixels
Display aspect ratio : 2.35:1
Frame rate mode : Constant
Frame rate : 25.000 FPS
Color space : YUV
Chroma subsampling : 4:2:0
Bit depth : 8 bits
Scan type : Progressive
Bits/(Pixel*Frame) : 0.034
Stream size : 424 MiB (87%)
Writing library : x264 core 155 r2893 b00bcaf

Format : AAC
Duration : 1 h 38 min
Bit rate : 87.1 kb/s
Channel(s) : 6 channels
Channel positions : Front: L C R, Side: L R, LFE
Sampling rate : 44.1 kHz
Frame rate : 43.066 FPS (1024 SPF)
Compression mode : Lossy
Stream size : 61.6 MiB (13%)



 :ss:









 :download:




























Dont Forget Sharing May Hobby

Click BY

Thanks     +Repute

Share this topic on FacebookShare this topic on GoogleShare this topic on MySpaceShare this topic on TwitterShare this topic on Yahoo




Tags:
 

Related Topics

  Subject / Started by Replies Last post
1 Replies
871 Views
Last post October 13, 2012, 12:11:39 AM
by nasir bashir
3 Replies
1050 Views
Last post November 19, 2013, 09:51:42 PM
by sαgαя15sнαн
0 Replies
455 Views
Last post February 06, 2015, 06:34:24 PM
by Abhik
0 Replies
370 Views
Last post December 12, 2016, 10:02:48 AM
by ♥[--K4Krish--]♥
1 Replies
415 Views
Last post April 05, 2018, 12:46:21 PM
by Ŝ.ϻ.ỖϻĮỖ



Back to top