+ ShareSpark.net »  :::: Hollywood Zone » Hollywood Movies (Pre Releases)
|- 211 (2018) 720p WEB-DL 700MB -


Mastercard 10% Off

211 (2018) 720p WEB-DL 700MB -

0 Members and 1 Guest are viewing this topic.

June 13, 2018, 07:20:09 PM
  • Legend Member
  • ****
  • Topic Author
  • Thank You: 1317
  • Reputation: 510
  • Activity:
    100%
  • Country: pk
  • Posts: 1555
  • Topics: 867
  • Join Date: Mar 2015
  • ShareSpark Member
211 (2018) 720p WEB-DL 700MB -





Media Info


Format                      : Matroska
Format version              : Version 4 / Version 2
File size                   : 702 MiB
Duration                    : 1 h 27 min
Overall bit rate            : 1 128 kb/s
Movie name                  : 211.2018.720p.WEB-DL.MkvCage.WS
Encoded date                : UTC 2018-06-08 06:09:37
Writing library             : libebml v1.3.6 + libmatroska v1.4.9
 
Video

ID                          : 2
Format                      : AVC
Format/Info                 : Advanced Video Codec
Format profile              : [email protected]
Format settings             : CABAC / 5 Ref Frames
Format settings, CABAC      : Yes
Format settings, ReFrames   : 5 frames
Codec ID                    : V_MPEG4/ISO/AVC
Duration                    : 1 h 27 min
Bit rate                    : 1 063 kb/s
Width                       : 1 280 pixels
Height                      : 692 pixels
Display aspect ratio        : 1.85:1
Frame rate mode             : Constant
Frame rate                  : 23.976 (24000/1001) FPS
Color space                 : YUV
Chroma subsampling          : 4:2:0
Bit depth                   : 8 bits
Scan type                   : Progressive
Bits/(Pixel*Frame)          : 0.050
Stream size                 : 661 MiB (94%)
Forced                      : No
Color range                 : Limited
Color primaries             : BT.709
Transfer characteristics    : BT.709
Matrix coefficients         : BT.709
 
Audio
ID                          : 1
Format                      : AAC
Format/Info                 : Advanced Audio Codec
Format profile              : HE-AAC / LC
Format settings             : Explicit
Codec ID                    : A_AAC-2
Duration                    : 1 h 27 min
Bit rate                    : 63.9 kb/s
Channel(s)                  : 2 channels
Channel positions           : Front: L R
Sampling rate               : 48.0 kHz / 24.0 kHz
Frame rate                  : 23.438 FPS (1024 SPF)
Compression mode            : Lossy
Delay relative to video     : 31 ms
Stream size                 : 39.8 MiB (6%)
Language                    : English
Default                     : Yes
Forced                      : No
 
Menu

00:00:00.000                : :1
00:05:50.600                : :2
00:10:14.739                : :3
00:16:14.348                : :4
00:22:31.225                : :5
00:28:33.670                : :6
00:32:44.629                : :7
00:38:48.076                : :8
00:43:59.804                : :9
00:49:44.523                : :10
00:54:29.349                : :11
01:00:37.717                : :12
01:05:15.495                : :13
01:11:29.202                : :14
01:16:12.651                : :15
01:21:21.293                : :16




 :ss:





 :download:

























Dont Forget Sharing May Hobby

Click BY

Thanks     +Repute

Share this topic on FacebookShare this topic on GoogleShare this topic on MySpaceShare this topic on TwitterShare this topic on Yahoo



Thanks given by:


Tags:
 

Related Topics

  Subject / Started by Replies Last post
0 Replies
361 Views
Last post December 29, 2017, 11:43:04 AM
by PSYCHO
0 Replies
330 Views
Last post January 12, 2018, 07:20:15 PM
by PSYCHO
0 Replies
806 Views
Last post January 25, 2018, 11:08:45 PM
by UnikAaYush
1 Replies
835 Views
Last post August 01, 2018, 07:22:22 PM
by shahzaibjaan
1 Replies
458 Views
Last post June 14, 2018, 06:34:52 PM
by shahzaibjaan




Back to top