+ ShareSpark.net
|- Recent Posts

Gif Cards 25% Off

Recent Posts

Pages: 1 2 3 4 ... 10
3
NICE SHARE
4
got in hindi plz......
5


PADMAAVAT (2018) Hindi 1080p Bluray x264 DD 5.1 - Esub ~ Ranvijay

Source : - BD50 @ Hon3yHD

Quote
Format                                   : Matroska
Format version                           : Version 4 / Version 2
File size                                : 4.01 GiB
Duration                                 : 2 h 43 min
Overall bit rate                         : 3 509 kb/s
Movie name                               : PADMAAVAT (2018) Hindi 1080p Bluray x264 DD 5.1 - Esub ~ Ranvijay

Video
ID                                       : 1
Format                                   : AVC
Duration                                 : 2 h 43 min
Bit rate                                 : 2 859 kb/s
Width                                    : 1 920 pixels
Height                                   : 804 pixels
Display aspect ratio                     : 2.40:1
Frame rate mode                          : Constant
Frame rate                               : 24.000 FPS
Color space                              : YUV
Chroma subsampling                       : 4:2:0
Bit depth                                : 8 bits
Scan type                                : Progressive
Bits/(Pixel*Frame)                       : 0.077
Stream size                              : 3.26 GiB (81%)
Title                                    : ~Ranvijay~
Default                                  : Yes
Forced                                   : No

Audio
ID                                       : 2
Format                                   : AC-3
Format/Info                              : Audio Coding 3
Codec ID                                 : A_AC3
Duration                                 : 2 h 43 min
Bit rate mode                            : Constant
Bit rate                                 : 640 kb/s
Channel(s)                               : 6 channels
Channel positions                        : Front: L C R, Side: L R, LFE
Sampling rate                            : 48.0 kHz
Frame rate                               : 31.250 FPS (1536 SPF)
Bit depth                                : 16 bits
Compression mode                         : Lossy
Delay relative to video                  : -83 ms
Stream size                              : 748 MiB (18%)
Title                                    : ~Ranvijay~
Language                                 : Hindi
Service kind                             : Complete Main
Default                                  : Yes
Forced                                   : No

Text
ID                                       : 3
Format                                   : PGS
Muxing mode                              : zlib
Codec ID                                 : S_HDMV/PGS
Codec ID/Info                            : Picture based subtitle format used on BDs/HD-DVDs
Duration                                 : 2 h 32 min
Bit rate                                 : 22.2 kb/s
Count of elements                        : 2506
Stream size                              : 24.3 MiB (1%)
Title                                    : ~Ranvijay~
Language                                 : English
Default                                  : Yes
Forced                                   : No














:download:

Quote

File Leeched & Uploaded From




Don't walk as you are king, walk as you don't care who the king is....!!
Never argue with an idiot. They drag you down to their level and then beat you with experience?
6
PADMAVAT (2018) 1080P BLURAY RIP X264 DTS HDMA 7.1 ESUB-DTONE EXCLUSIVE



Quote
**************************************************************************************************
Padmavat.(2018).1080p.BluRayRip.x264.DTS.HDMA.7.1.ESub-DTOne.Exclusive
**************************************************************************************************


General Info
Encoded By.............: Aapka Sallu Aka DU$ [email protected] $H3R
Source....................: DTOne ka warehouse
Sample Included......: SAMPLE
Container.................: Matroska
Length....................: 2hrs 44min
Size........................: 18 GiB
Total Bitrate.............: 15.7 Mb/s

Video Info
Codec...................: x264
Type.....................: 1080p BluRay Rip
Format Profile Level.: [email protected]
Resolution.............: 1920 x 800
Aspect Ratio..........: 2.40:1
Bitrate...................: 9 997 kb/s
Framerate..............: 24 FPS

Audio Info
Codec....................: DTS HDMA 7.1
Bitrate...................: 5 760 kb/s
kHz/bit...................: 96.0 KHz / 24 bits
Channels................: 8
Language...............: Hindi
Subtitles................: English

:ss:






:download:

Quote


File Leeched & Uploaded From




Don't walk as you are king, walk as you don't care who the king is....!!
Never argue with an idiot. They drag you down to their level and then beat you with experience?
7
small soldiers 1998 hindi
8
:title:
Bhooloham (2015) 720p UNCUT HDRip x264 Eng Subs [Dual Audio] [Hindi DD 2.0 - Tamil DD 5.1]

Exclusive By -=!Dr.STAR!=-

Bhaigiri 2 !!!


[-=!Dr.STAR!=-]

Perfect Synchronization at its Best - Brought to you By STAR...... Doctor STAR  :hukka:

STAR Release Exclusively By STAR Uploader of Team SSX  :smoke:



 :imdb:

Quote

 :plot:
Quote
How North madras local boxer boolagam beats international boxer Nathan Jones. .

:info:
---Movie Details---
Quote

General
Format : Matroska
Format version : Version 4 / Version 2
File size : 1.65 GiB
Duration : 2h 21mn
Overall bit rate : 1 664 Kbps

Video
ID : 1
Format : AVC
Format/Info : Advanced Video Codec
Codec ID : V_MPEG4/ISO/AVC
Duration : 2h 21mn
Bit rate : 1 310 Kbps
Width : 1 280 pixels
Height : 544 pixels
Display aspect ratio : 2.35:1
Title : -=!Dr.STAR!=-
Writing library : x264 core 148 r2638 7599210

Audio #1
ID : 2
Format : AC-3
Format profile : Dolby Digital
Codec ID : A_AC3
Duration : 2h 21mn
Bit rate mode : Constant
Bit rate : 192 Kbps
Channel(s) : 2 channels
Channel positions : Front: L R
Sampling rate : 48.0 KHz
Title : -=!Dr.STAR!=-
Language : Hindi

Audio #2
ID : 3
Format : AC-3
Format/Info : Audio Coding 3
Codec ID : A_AC3
Duration : 2h 21mn
Bit rate mode : Constant
Bit rate : 160 Kbps
Channel(s) : 6 channels
Channel positions : Front: L C R, Side: L R, LFE
Sampling rate : 44.1 KHz
Title : -=!Dr.STAR!=-
Language : Tamil

Text
ID : 4
Format : UTF-8
Codec ID : S_TEXT/UTF8
Codec ID/Info : UTF-8 Plain Text
Title : -=!Dr.STAR!=-
Language : English 

::::ScreenShots::::


 :ss:


:download:

Quote

Sample Link



Movie Links Exclusive @ SSX By -=!Dr.STAR!=-




:note:
Quote
Uploader's Note

It's Time for Jayam Ravi's Tamil Action Movie in Perfect Sync and UNCUT Hindi Audio... (It's Indian Dubbed Original Audio)
STAR Release as 720p UNCUT HDRip Dual Audio with Absolutely Lip to Lip Sync By -=!Dr.STAR!=-
Video - TamilMV, Hindi Audio - Goldmines... Million Thanx !!!
Plz Note - Tamil audio is added in between Hindi Audio to make perfect Sync Dual Audio...
Perfect Sync Credits to The STAR Releaser -=!Dr.STAR!=-
 :thank: for Visit :hukka:
Just leave Only 1 Valuable Comment - I will Reply with more STAR Movies.... SO KEEP COMMENTING  :hats:

Respect to Sharespark and Staff and Members - For providing me Platform and Support  :drinks:
9
Fida 2004 Hindi 1080p WEB-DL x264 AAC - Hon3yHD





A young man is hellbent to destroy his arch enemy and his lover, who destroyed his life.



Format                                   : MPEG-4
Format profile                           : Base Media
Codec ID                                 : isom (isom/iso2/avc1/mp41)
File size                                : 3.68 GiB
Duration                                 : 1 h 55 min
Overall bit rate mode                    : Constant
Overall bit rate                         : 4 566 kb/s


Video
ID                                       : 1
Format                                   : AVC
Format/Info                              : Advanced Video Codec
Format profile                           : [email protected]
Format settings                          : CABAC / 1 Ref Frames
Format settings, CABAC                   : Yes
Format settings, RefFrames               : 1 frame
Format settings, GOP                     : M=1, N=25
Codec ID                                 : avc1
Codec ID/Info                            : Advanced Video Coding
Duration                                 : 1 h 55 min
Bit rate mode                            : Constant
Bit rate                                 : 4 500 kb/s
Width                                    : 1 920 pixels
Height                                   : 1 080 pixels
Display aspect ratio                     : 16:9
Frame rate mode                          : Constant
Frame rate                               : 25.000 FPS
Color space                              : YUV
Chroma subsampling                       : 4:2:0
Bit depth                                : 8 bits
Scan type                                : Progressive
Bits/(Pixel*Frame)                       : 0.087
Stream size                              : 3.63 GiB (99%)

Audio
ID                                       : 2
Format                                   : AAC
Format/Info                              : Advanced Audio Codec
Format profile                           : LC
Codec ID                                 : mp4a-40-2
Duration                                 : 1 h 55 min
Bit rate mode                            : Constant
Bit rate                                 : 61.4 kb/s
Channel(s)                               : 2 channels
Channel positions                        : Front: L R
Sampling rate                            : 48.0 kHz
Frame rate                               : 46.875 FPS (1024 SPF)
Compression mode                         : Lossy
Stream size                              : 50.7 MiB (1%)
Default                                  : Yes
Alternate group                          : 1


















 :hats:
10
Sorry to bother you but just wanted Black Panther 640 kbps hindi audio just like you uploaded for Thor Ragnarok  :rep: :agreed:
Pages: 1 2 3 4 ... 10


Back to top