+ ShareSpark.net »  :::: Hollywood Zone » English PC Videos (High-Definition)
|- Avengers Infinity War (2018) - HD Official Trailer #1 [720p]


Avengers Infinity War (2018) - HD Official Trailer #1 [720p]

0 Members and 1 Guest are viewing this topic.

November 29, 2017, 11:03:05 PM
  • Team SSX
  • Hot Member
  • ***
  • Topic Author
  • Thank You: 109
  • Reputation: 18
  • Activity:
    15.2%
  • Country: pk
  • Posts: 640
  • Topics: 420
  • Join Date: Nov 2012
  • ShareSpark Member







IMDB:
Code: [Select]
http://www.imdb.com/title/tt4154756/
Code: [Select]
General
Complete name                            : Avengers.Infinity.War.2018.HD.Trailer.#1.720p.By.Rj.Rabasha.mp4
Format                                   : MPEG-4
Format profile                           : Base Media / Version 2
Codec ID                                 : mp42 (isom/mp42)
File size                                : 18.3 MiB
Duration                                 : 2 min 24 s
Overall bit rate mode                    : Variable
Overall bit rate                         : 1 064 kb/s
Encoded date                             : UTC 2017-11-29 13:52:23
Tagged date                              : UTC 2017-11-29 13:52:23
gsst                                     : 0
gstd                                     : 144195

Video
ID                                       : 1
Format                                   : AVC
Format/Info                              : Advanced Video Codec
Format profile                           : [email protected]
Format settings                          : CABAC / 3 Ref Frames
Format settings, CABAC                   : Yes
Format settings, RefFrames               : 3 frames
Codec ID                                 : avc1
Codec ID/Info                            : Advanced Video Coding
Duration                                 : 2 min 24 s
Bit rate                                 : 934 kb/s
Width                                    : 1 280 pixels
Height                                   : 532 pixels
Display aspect ratio                     : 2.40:1
Frame rate mode                          : Variable
Frame rate                               : 23.976 (24000/1001) FPS
Minimum frame rate                       : 23.974 FPS
Maximum frame rate                       : 23.981 FPS
Color space                              : YUV
Chroma subsampling                       : 4:2:0
Bit depth                                : 8 bits
Scan type                                : Progressive
Bits/(Pixel*Frame)                       : 0.057
Stream size                              : 16.1 MiB (88%)
Encoded date                             : UTC 2017-11-29 13:52:23
Tagged date                              : UTC 2017-11-29 13:52:23
Color range                              : Limited
Color primaries                          : BT.709
Transfer characteristics                 : BT.709
Matrix coefficients                      : BT.709

Audio
ID                                       : 2
Format                                   : AAC
Format/Info                              : Advanced Audio Codec
Format profile                           : LC
Codec ID                                 : mp4a-40-2
Duration                                 : 2 min 24 s
Bit rate mode                            : Variable
Bit rate                                 : 126 kb/s
Channel(s)                               : 2 channels
Channel positions                        : Front: L R
Sampling rate                            : 44.1 kHz
Frame rate                               : 43.066 FPS (1024 SPF)
Compression mode                         : Lossy
Stream size                              : 2.16 MiB (12%)
Encoded date                             : UTC 2017-11-29 13:52:23
Tagged date                              : UTC 2017-11-29 13:52:23

















Code: [Select]
https://openload.co/f/i0jDypCioMs


Code: [Select]
https://bdupload.info/ph22dhbgpv3i


Code: [Select]
http://www.indishare.me/jpljx41k8ahx


Code: [Select]
https://uptobox.com/q6bkohvk6r7m






Share this topic on FacebookShare this topic on GoogleShare this topic on MySpaceShare this topic on TwitterShare this topic on Yahoo



Thanks given by:


Tags:
 

Related Topics





Back to top