+ ShareSpark.net »  :::: Bollywood Zone » Bollywood Movies (Original Rips)
|- Half Girlfriend (2017) Hindi HDRip 720p x264 AAC 5.1 ESub...Hon3y


Half Girlfriend (2017) Hindi HDRip 720p x264 AAC 5.1 ESub...Hon3y

0 Members and 1 Guest are viewing this topic.

December 03, 2017, 04:57:20 PM
  • Elite Moderator
  • Legend Member
  • ****
  • Topic Author
  • Thank You: 3848
  • Reputation: 736
  • Activity:
    100%
  • Country: in
  • Posts: 3316
  • Topics: 2782
  • Join Date: Jan 2014
  • ıllıllı ѕмoĸιng ιѕ good ғor нealтн ıllıllı :)
Half Girlfriend (2017) Hindi HDRip 720p x264 AAC 5.1 ESub...Hon3y



Quote
General
Format                                   : Matroska
Format version                           : Version 4 / Version 2
File size                                : 1.20 GiB
Duration                                 : 2 h 9 min
Overall bit rate                         : 1 325 kb/s
Movie name                               : Half [email protected]

Video
Format                                   : AVC
Format/Info                              : Advanced Video Codec
Format profile                           : [email protected]
Format settings, CABAC                   : Yes
Format settings, RefFrames               : 12 frames
Codec ID                                 : V_MPEG4/ISO/AVC
Duration                                 : 2 h 9 min
Bit rate                                 : 1 132 kb/s
Width                                    : 1 280 pixels
Height                                   : 536 pixels
Display aspect ratio                     : 2.40:1
Frame rate mode                          : Constant
Frame rate                               : 25.000 FPS
Color space                              : YUV
Chroma subsampling                       : 4:2:0
Bit depth                                : 8 bits
Scan type                                : Progressive
Bits/(Pixel*Frame)                       : 0.066
Stream size                              : 1.02 GiB (85%)
Title                                    : Half [email protected]

Audio
Format                                   : AAC
Format/Info                              : Advanced Audio Codec
Format profile                           : LC
Codec ID                                 : A_AAC
Duration                                 : 2 h 9 min
Bit rate                                 : 192 kb/s
Channel(s)                               : 6 channels
Channel positions                        : Front: L C R, Side: L R, LFE
Sampling rate                            : 48.0 kHz
Frame rate                               : 46.875 FPS (1024 SPF)
Compression mode                         : Lossy
Delay relative to video                  : 9 ms
Stream size                              : 177 MiB (14%)
Title                                    : [email protected]
Language                                 : Hindi
Default                                  : Yes

SubTitle
Format                                   : UTF-8
Codec ID                                 : S_TEXT/UTF8
Codec ID/Info                            : UTF-8 Plain Text
Duration                                 : 1 h 40 min
Bit rate                                 : 79 b/s
Count of elements                        : 1425
Stream size                              : 58.7 KiB (0%)
Title                                    : English [email protected]
Language                                 : English
Default                                  : No

:ss:






:download:

Quote



















File Leeched & Uploaded From




Don't walk as you are king, walk as you don't care who the king is....!!
Never argue with an idiot. They drag you down to their level and then beat you with experience?

Share this topic on FacebookShare this topic on GoogleShare this topic on MySpaceShare this topic on TwitterShare this topic on Yahoo




Don't walk as you are king, walk as you don't care who the king is....!!

December 07, 2017, 11:40:47 PM
Reply #1
  • Newbie
  • **
  • Thank You: 0
  • Reputation: 0
  • Activity:
    0.2%
  • Country: in
  • Posts: 1
  • Topics: 0
  • Join Date: Dec 2017
  • ShareSpark Member

Tags:
 

Related Topics





Back to top