+ ShareSpark.net »  :::: Dubbed Zone (Dubbed English in Hindi) » English Movies Dubbed in Hindi » High Resolution Movies
|- As Above So Below 2014 1080p BRrip Dual Audio Hin-Dts + Eng-5.1 Skyler 3.4GB By JacKRoSe


As Above So Below 2014 1080p BRrip Dual Audio Hin-Dts + Eng-5.1 Skyler 3.4GB By JacKRoSe

0 Members and 1 Guest are viewing this topic.

December 07, 2017, 04:04:56 PM
  • Team SSX
  • Senior Member
  • ***
  • Topic Author
  • Thank You: 34
  • Reputation: 11
  • Activity:
    50.6%
  • Country: in
  • Posts: 261
  • Topics: 143
  • Join Date: Oct 2015
  • ShareSpark Member
As Above So Below 2014 1080p BRrip Dual Audio Hin-Dts + Eng-5.1 Skyler 3.4GB by JacKRoSe








IMDb: http://m.imdb.com/title/tt2870612/

Quote

As Above So Below 2014 1080p BRrip Dual Audio Hin-Dts + Eng-5.1 Skyler
General

Format                                   : Matroska
Format version                           : Version 4 / Version 2
File size                                : 3.32 GiB
Duration                                 : 1 h 33 min
Overall bit rate                         : 5 106 kb/s
Movie name                               : As Above So Below 2014 1080p BRrip Dual Audio Hin+Eng Skyler
Encoded date                             : UTC 2017-12-05 07:15:58
Writing application                      : mkvmerge v18.0.0 ('Apricity') 32-bit
Writing library                          : libebml v1.3.5 + libmatroska v1.4.8

Video

ID                                       : 1
Format                                   : AVC
Format/Info                              : Advanced Video Codec
Format profile                           : [email protected]
Format settings, CABAC                   : No
Format settings, RefFrames               : 4 frames
Codec ID                                 : V_MPEG4/ISO/AVC
Duration                                 : 1 h 33 min
Bit rate                                 : 3 890 kb/s
Width                                    : 1 920 pixels
Height                                   : 900 pixels
Display aspect ratio                     : 2.133
Frame rate mode                          : Constant
Frame rate                               : 23.976 FPS
Color space                              : YUV
Chroma subsampling                       : 4:2:0
Bit depth                                : 8 bits
Scan type                                : Progressive
Bits/(Pixel*Frame)                       : 0.094
Stream size                              : 2.53 GiB (76%)

Audio #1

ID                                       : 2
Format                                   : DTS
Format/Info                              : Digital Theater Systems
Mode                                     : 16
Format settings, Endianness              : Big
Codec ID                                 : A_DTS
Duration                                 : 1 h 33 min
Bit rate mode                            : Constant
Bit rate                                 : 768 kb/s
Channel(s)                               : 6 channels
Channel positions                        : Front: L C R, Side: L R, LFE
Sampling rate                            : 48.0 kHz
Frame rate                               : 93.750 FPS (512 SPF)
Bit depth                                : 24 bits
Compression mode                         : Lossy
Delay relative to video                  : -5 ms
Stream size                              : 511 MiB (15%)
Title                                    : DTS Skyler
Language                                 : Hindi
Default                                  : No
Forced                                   : No

Audio #2

ID                                       : 3
Format                                   : AC-3
Format/Info                              : Audio Coding 3
Format settings, Endianness              : Big
Codec ID                                 : A_AC3
Duration                                 : 1 h 33 min
Bit rate mode                            : Constant
Bit rate                                 : 448 kb/s
Channel(s)                               : 6 channels
Channel positions                        : Front: L C R, Side: L R, LFE
Sampling rate                            : 48.0 kHz
Frame rate                               : 31.250 FPS (1536 SPF)
Bit depth                                : 16 bits
Compression mode                         : Lossy
Delay relative to video                  : -5 ms
Stream size                              : 298 MiB (9%)
Title                                    : Bluray 5.1 Skyler
Language                                 : English
Service kind                             : Complete Main
Default                                  : Yes
Forced                                   : No




Download Links below






OR



OR



Awesome Horrible Thrilled Movie :yu:


Quote


Hit + Repute Button Alway Appreciate UploadeR, GiVe Respect GeT Respect

Share this topic on FacebookShare this topic on GoogleShare this topic on MySpaceShare this topic on TwitterShare this topic on Yahoo

« Last Edit: December 07, 2017, 04:05:49 PM by JackRoSe »



Tags:
 

Related Topics





Back to top