+ ShareSpark.net »  :::: Bollywood Zone » Bollywood Movies (Original Rips)
|- Fukrey (2013) 720p Blu-Ray x264 - MKV - Hindi - AC3 - 5.1 - Mafiaking


Fukrey (2013) 720p Blu-Ray x264 - MKV - Hindi - AC3 - 5.1 - Mafiaking

0 Members and 1 Guest are viewing this topic.

December 07, 2017, 10:36:55 PM
  • Semi Newbie
  • **
  • Topic Author
  • Thank You: 4
  • Reputation: 1
  • Activity:
    2.4%
  • Country: in
  • Posts: 9
  • Topics: 9
  • Join Date: Mar 2017
  • ShareSpark Member
Fukrey (2013) 720p Blu-Ray x264 - MKV - Hindi - AC3 - 5.1 - Mafiaking



 :info:
IMDB Rating: 6.6/10.0


GENRE: Comedy | Drama | Romance



General
Unique ID : 172199370843866841558885768078548918907 (0x818C6478FF83BF84BEE900802CE1E27B)
Complete name : Fukrey (2013) 720p Blu-Ray x264 - MKV - Hindi - AC3 - 5.1 - Mafiaking.mkv
Format : Matroska
Format version : Version 4 / Version 2
File size : 987 MiB
Duration : 2h 20mn
Overall bit rate : 979 Kbps
Movie name : Fukrey (2013) 720p Blu-Ray x264 - MKV - Hindi - AC3 - 5.1 - Mafiaking
Encoded date : UTC 2013-09-04 12:19:29
Writing application : mkvmerge v6.1.0 ('Old Devil') built on Mar 2 2013 14:32:37
Writing library : libebml v1.3.0 + libmatroska v1.4.0


Video
ID : 1
Format : AVC
Format/Info : Advanced Video Codec
Format profile : [email protected]
Format settings, CABAC : Yes
Format settings, ReFrames : 4 frames
Codec ID : V_MPEG4/ISO/AVC
Duration : 2h 20mn
Bit rate : 849 Kbps
Width : 1 280 pixels
Height : 536 pixels
Display aspect ratio : 2.40:1
Frame rate mode : Constant
Frame rate : 24.000 fps
Color space : YUV
Chroma subsampling : 4:2:0
Bit depth : 8 bits
Scan type : Progressive
Bits/(Pixel*Frame) : 0.052
Stream size : 838 MiB (85%)
Title : Mafiaking

Language : Hindi
Default : Yes
Forced : No


Audio
ID : 2
Format : AC-3
Format/Info : Audio Coding 3
Mode extension : CM (complete main)
Format settings, Endianness : Big
Codec ID : A_AC3
Duration : 2h 20mn
Bit rate mode : Constant
Bit rate : 128 Kbps
Channel(s) : 6 channels
Channel positions : Front: L C R, Side: L R, LFE
Sampling rate : 48.0 KHz
Bit depth : 16 bits
Compression mode : Lossy
Stream size : 129 MiB (13%)
Title : Mafiaking
Language : Hindi
Default : Yes
Forced : No


 :ss:







 :download:

Share this topic on FacebookShare this topic on GoogleShare this topic on MySpaceShare this topic on TwitterShare this topic on Yahoo




Tags: fukrey 2013 
 

Related Topics





Back to top