+ ShareSpark.net »  :::: Dubbed Zone (Dubbed English in Hindi) » English Movies Dubbed in Hindi
|- Jumanji Welcome to the Jungle (2017) HD CAM Hindi Eng Dual Audio Hon3yhd

10% Off with Visa

Jumanji Welcome to the Jungle (2017) HD CAM Hindi Eng Dual Audio Hon3yhd

0 Members and 1 Guest are viewing this topic.

December 30, 2017, 04:47:49 PM
  • Admin
  • Legend Member
  • ****
  • Topic Author
  • Thank You: 1927
  • Reputation: 490
  • Activity:
    29.6%
  • Country: in
  • Posts: 3543
  • Topics: 2148
  • Join Date: Dec 2013
  • ShareSpark Member

Jumanji Welcome to the Jungle (2017) HD CAM Hindi Eng Dual Audio Hon3yhd
   


Poster

   
















   



 
Format                      : Matroska
Format version              : Version 4 / Version 2
File size                   : 2.11 GiB
Duration                    : 1 h 50 min
Overall bit rate            : 2 740 kb/s
Encoded date                : UTC 2017-12-30 00:26:28
Writing application         : mkvmerge v19.0.0 ('Brave Captain') 64-bit
Writing library             : libebml v1.3.5 + libmatroska v1.4.8

Video
ID                          : 1
Format                      : AVC
Format/Info                 : Advanced Video Codec
Format profile              : [email protected]
Format settings             : CABAC / 4 Ref Frames
Format settings, CABAC      : Yes
Format settings, ReFrames   : 4 frames
Codec ID                    : V_MPEG4/ISO/AVC
Duration                    : 1 h 48 min
Bit rate                    : 2 454 kb/s
Width                       : 1 280 pixels
Height                      : 576 pixels
Display aspect ratio        : 2.222
Frame rate mode             : Constant
Frame rate                  : 29.970 (29970/1000) FPS
Original frame rate         : 29.970 (30000/1001) FPS
Color space                 : YUV
Chroma subsampling          : 4:2:0
Bit depth                   : 8 bits
Scan type                   : Progressive
Bits/(Pixel*Frame)          : 0.111
Stream size                 : 1.87 GiB (88%)
Writing library             : x264 core 146 r2538 121396c

Forced                      : No

Audio #1
ID                          : 2
Format                      : MPEG Audio
Format version              : Version 1
Format profile              : Layer 3
Codec ID                    : A_MPEG/L3
Codec ID/Hint               : MP3
Duration                    : 1 h 48 min
Bit rate mode               : Constant
Bit rate                    : 128 kb/s
Channel(s)                  : 2 channels
Sampling rate               : 48.0 kHz
Frame rate                  : 41.667 FPS (1152 SPF)
Compression mode            : Lossy
Stream size                 : 99.7 MiB (5%)
Language                    : Hindi
Default                     : Yes
Forced                      : No

Audio #2
ID                          : 3
Format                      : AC-3
Format/Info                 : Audio Coding 3
Codec ID                    : A_AC3
Duration                    : 1 h 50 min
Bit rate mode               : Constant
Bit rate                    : 192 kb/s
Channel(s)                  : 2 channels
Channel positions           : Front: L R
Sampling rate               : 44.1 kHz
Frame rate                  : 28.711 FPS (1536 SPF)
Bit depth                   : 16 bits
Compression mode            : Lossy
Delay relative to video     : -133 ms
Stream size                 : 152 MiB (7%)
Service kind                : Complete Main
Default                     : No
Forced                      : No




All Credit Goes To Original Uploader









      

   

















      
      

Share this topic on FacebookShare this topic on GoogleShare this topic on MySpaceShare this topic on TwitterShare this topic on Yahoo

« Last Edit: December 30, 2017, 05:00:30 PM by тнє ωαll 81317 »



Thanks given by:


December 30, 2017, 09:13:56 PM
Reply #1
  • Semi Newbie
  • **
  • Thank You: 0
  • Reputation: 0
  • Activity:
    0.4%
  • Posts: 34
  • Topics: 0
  • Join Date: Sep 2013
  • ShareSpark Member

Tags:
 

Related Topics




Back to top