+ ShareSpark.net »  :::: Dubbed Zone (Dubbed English in Hindi) » English Movies Dubbed in Hindi » HEVC / H.265 Releases
|- The Foreigner 2017 720p BRRip HEVC x265 Dual Audio [Hindi DD5.1 - Eng 2.0] -Esubs ~ Ranvijay

Gif Cards 25% Off

The Foreigner 2017 720p BRRip HEVC x265 Dual Audio [Hindi DD5.1 - Eng 2.0] -Esubs ~ Ranvijay

0 Members and 1 Guest are viewing this topic.

January 02, 2018, 05:39:26 PM
  • Global Moderator
  • Legend Member
  • *****
  • Topic Author
  • Thank You: 7340
  • Reputation: 1609
  • Activity:
    100%
  • Country: in
  • Posts: 4456
  • Topics: 3708
  • Join Date: Jan 2014
  • ıllıllı ѕмoĸιng ιѕ good ғor нealтн ıllıllı :)




The Foreigner 2017 720p BRRip x264 Dual Audio [Hindi DD5.1 - English 2.0] - Esub ~ Ranvijay






Quote
Format                                   : Matroska
Format version                           : Version 4 / Version 2
File size                                : 912 MiB
Duration                                 : 1 h 53 min
Overall bit rate                         : 1 119 kb/s
Movie name                               : The Foreigner 2017 720p BRRip HEVC x265 Dual Audio [Hindi DD5.1 - Eng 2.0] -Esubs ~ Ranvijay

Video
ID                                       : 1
Duration                                 : 1 h 53 min
Bit rate                                 : 823 kb/s
Width                                    : 1 280 pixels
Height                                   : 536 pixels
Display aspect ratio                     : 2.40:1
Frame rate mode                          : Constant
Frame rate                               : 23.976 (24000/1001) FPS
Stream size                              : 671 MiB (74%)
Title                                    : ~Ranvijay~
Default                                  : Yes
Forced                                   : N

Audio #1
ID                                       : 2
Format                                   : AC-3
Format/Info                              : Audio Coding 3
Codec ID                                 : A_AC3
Duration                                 : 1 h 53 min
Bit rate mode                            : Constant
Bit rate                                 : 192 kb/s
Channel(s)                               : 6 channels
Channel positions                        : Front: L C R, Side: L R, LFE
Sampling rate                            : 44.1 kHz
Frame rate                               : 28.711 FPS (1536 SPF)
Bit depth                                : 16 bits
Compression mode                         : Lossy
Stream size                              : 156 MiB (17%)
Title                                    : ~Ranvijay~
Language                                 : Hindi
Service kind                             : Complete Main
Default                                  : Yes
Forced                                   : No

Audio #2
ID                                       : 3
Format                                   : AAC
Format/Info                              : Advanced Audio Codec
Format profile                           : HE-AAC / LC
Format settings                          : Explicit
Codec ID                                 : A_AAC-2
Duration                                 : 1 h 53 min
Bit rate                                 : 100.0 kb/s
Channel(s)                               : 2 channels
Channel positions                        : Front: L R
Sampling rate                            : 48.0 kHz / 24.0 kHz
Frame rate                               : 23.438 FPS (1024 SPF)
Compression mode                         : Lossy
Delay relative to video                  : 31 ms
Stream size                              : 81.4 MiB (9%)
Title                                    : ~Ranvijay~
Language                                 : English
Default                                  : No
Forced                                   : No

Text
ID                                       : 4
Format                                   : VobSub
Muxing mode                              : zlib
Codec ID                                 : S_VOBSUB
Codec ID/Info                            : Picture based subtitle format used on DVDs
Duration                                 : 1 h 44 min
Bit rate                                 : 2 952 b/s
Count of elements                        : 1392
Stream size                              : 2.21 MiB (0%)
Title                                    : ~Ranvijay~
Language                                 : English
Default                                  : Yes
Forced                                   : No

Menu
00:00:00.000                             : :00:00:00.000
00:08:19.541                             : :00:08:19.541
00:15:49.574                             : :00:15:49.574
00:21:47.765                             : :00:21:47.765
00:27:04.164                             : :00:27:04.164
00:32:09.511                             : :00:32:09.511
00:35:24.164                             : :00:35:24.164
00:38:30.934                             : :00:38:30.934
00:43:50.169                             : :00:43:50.169
00:47:38.189                             : :00:47:38.189
00:54:10.497                             : :00:54:10.497
01:01:42.324                             : :01:01:42.324
01:08:07.333                             : :01:08:07.333
01:14:14.033                             : :01:14:14.033
01:18:42.927                             : :01:18:42.927
01:23:26.877                             : :01:23:26.877
01:29:18.812                             : :01:29:18.812
01:38:55.012                             : :01:38:55.012
01:43:45.928                             : :01:43:45.928
01:47:09.423                             : :01:47:09.298










Quote













File Leeched & Uploaded From




Don't walk as you are king, walk as you don't care who the king is....!!
Never argue with an idiot. They drag you down to their level and then beat you with experience?

Share this topic on FacebookShare this topic on GoogleShare this topic on MySpaceShare this topic on TwitterShare this topic on Yahoo

« Last Edit: January 02, 2018, 05:50:51 PM by Rάήνίјάч1234 »



Don't walk as you are king, walk as you don't care who the king is....!!

Thanks given by:


January 04, 2018, 06:41:20 PM
Reply #1
  • Devoted Member
  • **
  • Thank You: 4
  • Reputation: 137
  • Activity:
    10.8%
  • Country: in
  • Posts: 123
  • Topics: 2
  • Join Date: Jan 2016
  • ShareSpark Member

Tags:
 

Related Topics




Back to top